  0
SECTION
  2
HEADER
  9
$ACADVER
  1
AC1015
  9
$ACADMAINTVER
 70
     6
  9
$DWGCODEPAGE
  3
ANSI_1252
  9
$INSBASE
 10
0.0
 20
0.0
 30
0.0
  9
$EXTMIN
 10
-210.0000000000001
 20
0.0
 30
0.0
  9
$EXTMAX
 10
0.0
 20
297.0000000000001
 30
0.0
  9
$LIMMIN
 10
0.0
 20
0.0
  9
$LIMMAX
 10
12.0
 20
9.0
  9
$ORTHOMODE
 70
     0
  9
$REGENMODE
 70
     1
  9
$FILLMODE
 70
     1
  9
$QTEXTMODE
 70
     0
  9
$MIRRTEXT
 70
     1
  9
$LTSCALE
 40
1.0
  9
$ATTMODE
 70
     1
  9
$TEXTSIZE
 40
0.2
  9
$TRACEWID
 40
0.05
  9
$TEXTSTYLE
  7
Standard
  9
$CLAYER
  8
0
  9
$CELTYPE
  6
ByLayer
  9
$CECOLOR
 62
   256
  9
$CELTSCALE
 40
1.0
  9
$DISPSILH
 70
     0
  9
$DIMSCALE
 40
1.0
  9
$DIMASZ
 40
0.18
  9
$DIMEXO
 40
0.0625
  9
$DIMDLI
 40
0.38
  9
$DIMRND
 40
0.0
  9
$DIMDLE
 40
0.0
  9
$DIMEXE
 40
0.18
  9
$DIMTP
 40
0.0
  9
$DIMTM
 40
0.0
  9
$DIMTXT
 40
0.18
  9
$DIMCEN
 40
0.09
  9
$DIMTSZ
 40
0.0
  9
$DIMTOL
 70
     0
  9
$DIMLIM
 70
     0
  9
$DIMTIH
 70
     1
  9
$DIMTOH
 70
     1
  9
$DIMSE1
 70
     0
  9
$DIMSE2
 70
     0
  9
$DIMTAD
 70
     0
  9
$DIMZIN
 70
     0
  9
$DIMBLK
  1

  9
$DIMASO
 70
     1
  9
$DIMSHO
 70
     1
  9
$DIMPOST
  1

  9
$DIMAPOST
  1

  9
$DIMALT
 70
     0
  9
$DIMALTD
 70
     2
  9
$DIMALTF
 40
25.4
  9
$DIMLFAC
 40
1.0
  9
$DIMTOFL
 70
     0
  9
$DIMTVP
 40
0.0
  9
$DIMTIX
 70
     0
  9
$DIMSOXD
 70
     0
  9
$DIMSAH
 70
     0
  9
$DIMBLK1
  1

  9
$DIMBLK2
  1

  9
$DIMSTYLE
  2
Standard
  9
$DIMCLRD
 70
     0
  9
$DIMCLRE
 70
     0
  9
$DIMCLRT
 70
     0
  9
$DIMTFAC
 40
1.0
  9
$DIMGAP
 40
0.09
  9
$DIMJUST
 70
     0
  9
$DIMSD1
 70
     0
  9
$DIMSD2
 70
     0
  9
$DIMTOLJ
 70
     1
  9
$DIMTZIN
 70
     0
  9
$DIMALTZ
 70
     0
  9
$DIMALTTZ
 70
     0
  9
$DIMUPT
 70
     0
  9
$DIMDEC
 70
     4
  9
$DIMTDEC
 70
     4
  9
$DIMALTU
 70
     2
  9
$DIMALTTD
 70
     2
  9
$DIMTXSTY
  7
Standard
  9
$DIMAUNIT
 70
     0
  9
$DIMADEC
 70
     0
  9
$DIMALTRND
 40
0.0
  9
$DIMAZIN
 70
     0
  9
$DIMDSEP
 70
    46
  9
$DIMATFIT
 70
     3
  9
$DIMFRAC
 70
     0
  9
$DIMLDRBLK
  1

  9
$DIMLUNIT
 70
     2
  9
$DIMLWD
 70
    -2
  9
$DIMLWE
 70
    -2
  9
$DIMTMOVE
 70
     0
  9
$LUNITS
 70
     2
  9
$LUPREC
 70
     4
  9
$SKETCHINC
 40
0.1
  9
$FILLETRAD
 40
0.5
  9
$AUNITS
 70
     0
  9
$AUPREC
 70
     0
  9
$MENU
  1
.
  9
$ELEVATION
 40
0.0
  9
$PELEVATION
 40
0.0
  9
$THICKNESS
 40
0.0
  9
$LIMCHECK
 70
     0
  9
$CHAMFERA
 40
0.5
  9
$CHAMFERB
 40
0.5
  9
$CHAMFERC
 40
1.0
  9
$CHAMFERD
 40
0.0
  9
$SKPOLY
 70
     0
  9
$TDCREATE
 40
2456997.49101684
  9
$TDUCREATE
 40
2456997.449350174
  9
$TDUPDATE
 40
2456997.491017025
  9
$TDUUPDATE
 40
2456997.449350359
  9
$TDINDWG
 40
0.0000000116
  9
$TDUSRTIMER
 40
0.0000000116
  9
$USRTIMER
 70
     1
  9
$ANGBASE
 50
0.0
  9
$ANGDIR
 70
     0
  9
$PDMODE
 70
     0
  9
$PDSIZE
 40
0.0
  9
$PLINEWID
 40
0.0
  9
$SPLFRAME
 70
     0
  9
$SPLINETYPE
 70
     6
  9
$SPLINESEGS
 70
     8
  9
$HANDSEED
  5
4F1
  9
$SURFTAB1
 70
     6
  9
$SURFTAB2
 70
     6
  9
$SURFTYPE
 70
     6
  9
$SURFU
 70
     6
  9
$SURFV
 70
     6
  9
$UCSBASE
  2

  9
$UCSNAME
  2

  9
$UCSORG
 10
0.0
 20
0.0
 30
0.0
  9
$UCSXDIR
 10
1.0
 20
0.0
 30
0.0
  9
$UCSYDIR
 10
0.0
 20
1.0
 30
0.0
  9
$UCSORTHOREF
  2

  9
$UCSORTHOVIEW
 70
     0
  9
$UCSORGTOP
 10
0.0
 20
0.0
 30
0.0
  9
$UCSORGBOTTOM
 10
0.0
 20
0.0
 30
0.0
  9
$UCSORGLEFT
 10
0.0
 20
0.0
 30
0.0
  9
$UCSORGRIGHT
 10
0.0
 20
0.0
 30
0.0
  9
$UCSORGFRONT
 10
0.0
 20
0.0
 30
0.0
  9
$UCSORGBACK
 10
0.0
 20
0.0
 30
0.0
  9
$PUCSBASE
  2

  9
$PUCSNAME
  2

  9
$PUCSORG
 10
0.0
 20
0.0
 30
0.0
  9
$PUCSXDIR
 10
1.0
 20
0.0
 30
0.0
  9
$PUCSYDIR
 10
0.0
 20
1.0
 30
0.0
  9
$PUCSORTHOREF
  2

  9
$PUCSORTHOVIEW
 70
     0
  9
$PUCSORGTOP
 10
0.0
 20
0.0
 30
0.0
  9
$PUCSORGBOTTOM
 10
0.0
 20
0.0
 30
0.0
  9
$PUCSORGLEFT
 10
0.0
 20
0.0
 30
0.0
  9
$PUCSORGRIGHT
 10
0.0
 20
0.0
 30
0.0
  9
$PUCSORGFRONT
 10
0.0
 20
0.0
 30
0.0
  9
$PUCSORGBACK
 10
0.0
 20
0.0
 30
0.0
  9
$USERI1
 70
     0
  9
$USERI2
 70
     0
  9
$USERI3
 70
     0
  9
$USERI4
 70
     0
  9
$USERI5
 70
     0
  9
$USERR1
 40
18.1
  9
$USERR2
 40
0.0
  9
$USERR3
 40
0.0
  9
$USERR4
 40
0.0
  9
$USERR5
 40
0.0
  9
$WORLDVIEW
 70
     1
  9
$SHADEDGE
 70
     3
  9
$SHADEDIF
 70
    70
  9
$TILEMODE
 70
     1
  9
$MAXACTVP
 70
    64
  9
$PINSBASE
 10
0.0
 20
0.0
 30
0.0
  9
$PLIMCHECK
 70
     0
  9
$PEXTMIN
 10
1.00000000000000E+20
 20
1.00000000000000E+20
 30
1.00000000000000E+20
  9
$PEXTMAX
 10
-1.00000000000000E+20
 20
-1.00000000000000E+20
 30
-1.00000000000000E+20
  9
$PLIMMIN
 10
0.0
 20
0.0
  9
$PLIMMAX
 10
12.0
 20
9.0
  9
$UNITMODE
 70
     0
  9
$VISRETAIN
 70
     1
  9
$PLINEGEN
 70
     0
  9
$PSLTSCALE
 70
     1
  9
$TREEDEPTH
 70
  3020
  9
$CMLSTYLE
  2
Standard
  9
$CMLJUST
 70
     0
  9
$CMLSCALE
 40
1.0
  9
$PROXYGRAPHICS
 70
     1
  9
$MEASUREMENT
 70
     1
  9
$CELWEIGHT
370
    -1
  9
$ENDCAPS
280
     0
  9
$JOINSTYLE
280
     0
  9
$LWDISPLAY
290
     0
  9
$INSUNITS
 70
     4
  9
$HYPERLINKBASE
  1

  9
$STYLESHEET
  1

  9
$XEDIT
290
     1
  9
$CEPSNTYPE
380
     0
  9
$PSTYLEMODE
290
     1
  9
$FINGERPRINTGUID
  2
{E1284E7B-D71A-4989-81D2-7BB4AC76860F}
  9
$VERSIONGUID
  2
{FAEB1C32-E019-11D5-929B-00C0DF256EC4}
  9
$EXTNAMES
290
     1
  9
$PSVPSCALE
 40
0.0
  9
$OLESTARTUP
290
     0
  0
ENDSEC
  0
SECTION
  2
CLASSES
  0
CLASS
  1
ACDBDICTIONARYWDFLT
  2
AcDbDictionaryWithDefault
  3
ObjectDBX Classes
 90
        0
280
     0
281
     0
  0
CLASS
  1
VISUALSTYLE
  2
AcDbVisualStyle
  3
ObjectDBX Classes
 90
     4095
280
     0
281
     0
  0
CLASS
  1
MATERIAL
  2
AcDbMaterial
  3
ObjectDBX Classes
 90
     1153
280
     0
281
     0
  0
CLASS
  1
DICTIONARYVAR
  2
AcDbDictionaryVar
  3
ObjectDBX Classes
 90
        0
280
     0
281
     0
  0
CLASS
  1
ACDBPLACEHOLDER
  2
AcDbPlaceHolder
  3
ObjectDBX Classes
 90
        0
280
     0
281
     0
  0
CLASS
  1
LAYOUT
  2
AcDbLayout
  3
ObjectDBX Classes
 90
        0
280
     0
281
     0
  0
ENDSEC
  0
SECTION
  2
TABLES
  0
TABLE
  2
VPORT
  5
8
330
0
100
AcDbSymbolTable
 70
     1
  0
VPORT
  5
29
330
8
100
AcDbSymbolTableRecord
100
AcDbViewportTableRecord
  2
*Active
 70
     0
 10
0.0
 20
0.0
 11
1.0
 21
1.0
 12
-105.0000000000001
 22
148.5000000000001
 13
0.0
 23
0.0
 14
0.5
 24
0.5
 15
0.5
 25
0.5
 16
0.0
 26
0.0
 36
1.0
 17
0.0
 27
0.0
 37
0.0
 40
326.7000000000002
 41
1.60267857142857
 42
50.0
 43
0.0
 44
0.0
 50
0.0
 51
0.0
 71
     0
 72
   100
 73
     1
 74
     3
 75
     0
 76
     0
 77
     0
 78
     0
281
     0
 65
     1
110
0.0
120
0.0
130
0.0
111
1.0
121
0.0
131
0.0
112
0.0
122
1.0
132
0.0
 79
     0
146
0.0
  0
ENDTAB
  0
TABLE
  2
LTYPE
  5
5
330
0
100
AcDbSymbolTable
 70
     8
  0
LTYPE
  5
14
330
5
100
AcDbSymbolTableRecord
100
AcDbLinetypeTableRecord
  2
ByBlock
 70
     0
  3

 72
    65
 73
     0
 40
0.0
  0
LTYPE
  5
15
330
5
100
AcDbSymbolTableRecord
100
AcDbLinetypeTableRecord
  2
ByLayer
 70
     0
  3

 72
    65
 73
     0
 40
0.0
  0
LTYPE
  5
16
330
5
100
AcDbSymbolTableRecord
100
AcDbLinetypeTableRecord
  2
Continuous
 70
     0
  3
Solid line
 72
    65
 73
     0
 40
0.0
  0
LTYPE
  5
3F
330
5
100
AcDbSymbolTableRecord
100
AcDbLinetypeTableRecord
  2
DASHED
 70
     0
  3
Dashed
 72
    65
 73
     2
 40
15.0
 49
7.0
 74
     0
 49
-8.0
 74
     0
  0
LTYPE
  5
40
330
5
100
AcDbSymbolTableRecord
100
AcDbLinetypeTableRecord
  2
DOTTED
 70
     0
  3
Dotted
 72
    65
 73
     2
 40
1.0
 49
0.0
 74
     0
 49
-1.0
 74
     0
  0
LTYPE
  5
41
330
5
100
AcDbSymbolTableRecord
100
AcDbLinetypeTableRecord
  2
DOT_CENTER
 70
     0
  3
Dot_Center
 72
    65
 73
     4
 40
14.0
 49
12.0
 74
     0
 49
-1.0
 74
     0
 49
0.0
 74
     0
 49
-1.0
 74
     0
  0
LTYPE
  5
42
330
5
100
AcDbSymbolTableRecord
100
AcDbLinetypeTableRecord
  2
LONG_DASHED
 70
     0
  3
Long_Dashed
 72
    65
 73
     2
 40
15.0
 49
10.0
 74
     0
 49
-5.0
 74
     0
  0
LTYPE
  5
43
330
5
100
AcDbSymbolTableRecord
100
AcDbLinetypeTableRecord
  2
DASH_CENTER
 70
     0
  3
Dash_Center
 72
    65
 73
     4
 40
14.0
 49
11.0
 74
     0
 49
-1.0
 74
     0
 49
1.0
 74
     0
 49
-1.0
 74
     0
  0
LTYPE
  5
44
330
5
100
AcDbSymbolTableRecord
100
AcDbLinetypeTableRecord
  2
PHANTOM
 70
     0
  3
Phantom
 72
    65
 73
     6
 40
13.0
 49
10.0
 74
     0
 49
-1.0
 74
     0
 49
0.0
 74
     0
 49
-1.0
 74
     0
 49
0.0
 74
     0
 49
-1.0
 74
     0
  0
LTYPE
  5
45
330
5
100
AcDbSymbolTableRecord
100
AcDbLinetypeTableRecord
  2
CENTER_DASH_DASH
 70
     0
  3
Center_Dash_Dash
 72
    65
 73
     6
 40
14.0
 49
9.0
 74
     0
 49
-1.0
 74
     0
 49
1.0
 74
     0
 49
-1.0
 74
     0
 49
1.0
 74
     0
 49
-1.0
 74
     0
  0
ENDTAB
  0
TABLE
  2
LAYER
  5
2
330
0
100
AcDbSymbolTable
 70
     2
  0
LAYER
  5
10
330
2
100
AcDbSymbolTableRecord
100
AcDbLayerTableRecord
  2
0
 70
     0
 62
     7
  6
Continuous
370
    -3
390
F
  0
LAYER
  5
46
330
2
100
AcDbSymbolTableRecord
100
AcDbLayerTableRecord
  2
1
 70
     0
 62
     7
  6
Continuous
370
    -3
390
F
  0
ENDTAB
  0
TABLE
  2
STYLE
  5
3
330
0
100
AcDbSymbolTable
 70
     4
  0
STYLE
  5
11
330
3
100
AcDbSymbolTableRecord
100
AcDbTextStyleTableRecord
  2
Standard
 70
     0
 40
0.0
 41
1.0
 50
0.0
 71
     0
 42
0.2
  3
txt
  4

  0
STYLE
  5
496
330
3
100
AcDbSymbolTableRecord
100
AcDbTextStyleTableRecord
  2
CONVERTER_11
 70
     0
 40
0.0
 41
1.2
 50
0.0
 71
     0
 42
0.2
  3
ARIAL.TTF
  4

  0
STYLE
  5
49E
330
3
100
AcDbSymbolTableRecord
100
AcDbTextStyleTableRecord
  2
CONVERTER_12
 70
     0
 40
0.0
 41
1.44
 50
0.0
 71
     0
 42
0.2
  3
ARIAL.TTF
  4

  0
STYLE
  5
4A6
330
3
100
AcDbSymbolTableRecord
100
AcDbTextStyleTableRecord
  2
CONVERTER_13
 70
     0
 40
0.0
 41
0.95
 50
0.0
 71
     0
 42
0.2
  3
simplex.shx
  4

  0
ENDTAB
  0
TABLE
  2
VIEW
  5
6
330
0
100
AcDbSymbolTable
 70
     0
  0
ENDTAB
  0
TABLE
  2
UCS
  5
7
330
0
100
AcDbSymbolTable
 70
     0
  0
ENDTAB
  0
TABLE
  2
APPID
  5
9
330
0
100
AcDbSymbolTable
 70
     1
  0
APPID
  5
12
330
9
100
AcDbSymbolTableRecord
100
AcDbRegAppTableRecord
  2
ACAD
 70
     0
  0
ENDTAB
  0
TABLE
  2
DIMSTYLE
  5
A
330
0
100
AcDbSymbolTable
 70
     4
100
AcDbDimStyleTable
  0
DIMSTYLE
105
27
330
A
100
AcDbSymbolTableRecord
100
AcDbDimStyleTableRecord
  2
Standard
 70
     0
178
     0
340
11
  0
DIMSTYLE
105
4AA
102
{ACAD_REACTORS
330
4AB
102
}
330
A
100
AcDbSymbolTableRecord
100
AcDbDimStyleTableRecord
  2
ME10_DIM_10
 70
     0
 41
3.0
 42
0.5
 44
1.0
 73
     0
 74
     0
 77
     1
 78
     8
140
3.0
147
2.0
172
     1
173
     1
174
     1
175
     1
176
     2
177
     2
271
     2
178
     4
271
     2
340
4A6
  0
DIMSTYLE
105
4B5
102
{ACAD_REACTORS
330
4B6
102
}
330
A
100
AcDbSymbolTableRecord
100
AcDbDimStyleTableRecord
  2
ME10_DIM_11
 70
     0
 41
3.0
 42
0.5
 44
1.0
 73
     0
 74
     0
 77
     1
 78
     8
140
3.0
147
2.0
172
     1
173
     1
174
     1
175
     1
176
     2
177
     2
271
     2
178
     4
271
     2
340
4A6
  0
DIMSTYLE
105
4C0
102
{ACAD_REACTORS
330
4C1
102
}
330
A
100
AcDbSymbolTableRecord
100
AcDbDimStyleTableRecord
  2
ME10_DIM_12
 70
     0
 41
3.0
 42
0.5
 44
1.0
 73
     0
 74
     0
 77
     1
 78
     8
140
3.0
147
2.0
172
     1
173
     1
174
     1
175
     1
176
     2
177
     2
271
     2
178
     4
271
     2
340
4A6
  0
ENDTAB
  0
TABLE
  2
BLOCK_RECORD
  5
1
330
0
100
AcDbSymbolTable
 70
     4
  0
BLOCK_RECORD
  5
1F
330
1
100
AcDbSymbolTableRecord
100
AcDbBlockTableRecord
  2
*Model_Space
340
22
  0
BLOCK_RECORD
  5
1B
330
1
100
AcDbSymbolTableRecord
100
AcDbBlockTableRecord
  2
*Paper_Space
340
1E
  0
BLOCK_RECORD
  5
23
330
1
100
AcDbSymbolTableRecord
100
AcDbBlockTableRecord
  2
*Paper_Space0
340
26
  0
BLOCK_RECORD
  5
4A0
330
1
100
AcDbSymbolTableRecord
100
AcDbBlockTableRecord
  2
*D1
340
0
  0
BLOCK_RECORD
  5
4AC
330
1
100
AcDbSymbolTableRecord
100
AcDbBlockTableRecord
  2
*D2
340
0
  0
BLOCK_RECORD
  5
4B7
330
1
100
AcDbSymbolTableRecord
100
AcDbBlockTableRecord
  2
*D3
340
0
  0
ENDTAB
  0
ENDSEC
  0
SECTION
  2
BLOCKS
  0
BLOCK
  5
20
330
1F
100
AcDbEntity
  8
0
100
AcDbBlockBegin
  2
*Model_Space
 70
     0
 10
0.0
 20
0.0
 30
0.0
  3
*Model_Space
  1

  0
ENDBLK
  5
21
330
1F
100
AcDbEntity
  8
0
100
AcDbBlockEnd
  0
BLOCK
  5
1C
330
1B
100
AcDbEntity
 67
     1
  8
0
100
AcDbBlockBegin
  2
*Paper_Space
 70
     0
 10
0.0
 20
0.0
 30
0.0
  3
*Paper_Space
  1

  0
ENDBLK
  5
1D
330
1B
100
AcDbEntity
 67
     1
  8
0
100
AcDbBlockEnd
  0
BLOCK
  5
24
330
23
100
AcDbEntity
  8
0
100
AcDbBlockBegin
  2
*Paper_Space0
 70
     0
 10
0.0
 20
0.0
 30
0.0
  3
*Paper_Space0
  1

  0
ENDBLK
  5
25
330
23
100
AcDbEntity
  8
0
100
AcDbBlockEnd
  0
BLOCK
  5
4A8
330
4A0
100
AcDbEntity
  8
0
100
AcDbBlockBegin
  2
*D1
 70
     1
 10
0.0
 20
0.0
 30
0.0
  3
*D1
  1

  0
LINE
  5
4A1
330
4A0
100
AcDbEntity
  8
1
  6
Continuous
 62
     2
100
AcDbLine
 10
-150.0
 20
203.210245573969
 30
0.0
 11
-120.6000003814697
 21
203.210245573969
 31
0.0
  0
LINE
  5
4A2
330
4A0
100
AcDbEntity
  8
1
  6
Continuous
 62
     2
100
AcDbLine
 10
-150.0
 20
193.6360289190316
 30
0.0
 11
-150.0
 21
204.210245573969
 31
0.0
  0
LINE
  5
4A3
330
4A0
100
AcDbEntity
  8
1
  6
Continuous
 62
     2
100
AcDbLine
 10
-120.6000003814697
 20
193.6360289190316
 30
0.0
 11
-120.6000003814697
 21
204.210245573969
 31
0.0
  0
SOLID
  5
4A4
330
4A0
100
AcDbEntity
  8
1
 62
     2
100
AcDbTrace
 10
-147.0
 20
203.6052030667312
 30
0.0
 11
-147.0
 21
202.8152880812068
 31
0.0
 12
-150.0
 22
203.210245573969
 32
0.0
 13
-150.0
 23
203.210245573969
 33
0.0
  0
SOLID
  5
4A5
330
4A0
100
AcDbEntity
  8
1
 62
     2
100
AcDbTrace
 10
-123.6000003814697
 20
202.8152880812068
 30
0.0
 11
-123.6000003814697
 21
203.6052030667312
 31
0.0
 12
-120.6000003814697
 22
203.210245573969
 32
0.0
 13
-120.6000003814697
 23
203.210245573969
 33
0.0
  0
MTEXT
  5
4A7
330
4A0
100
AcDbEntity
  8
1
 62
     4
100
AcDbMText
 10
-139.4250001907349
 20
205.510245573969
 30
0.0
 40
3.0
 41
0.0
 71
     7
 72
     1
  1
29,4
  7
CONVERTER_13
 11
0.9999999999970619
 21
2.424068405545306E-6
 31
0.0
 73
     1
 44
0.60024009603842
  0
ENDBLK
  5
4A9
330
4A0
100
AcDbEntity
  8
0
100
AcDbBlockEnd
  0
BLOCK
  5
4B3
330
4AC
100
AcDbEntity
  8
0
100
AcDbBlockBegin
  2
*D2
 70
     1
 10
0.0
 20
0.0
 30
0.0
  3
*D2
  1

  0
LINE
  5
4AD
330
4AC
100
AcDbEntity
  8
1
  6
Continuous
 62
     2
100
AcDbLine
 10
-74.0
 20
203.210245573969
 30
0.0
 11
-44.0
 21
203.210245573969
 31
0.0
  0
LINE
  5
4AE
330
4AC
100
AcDbEntity
  8
1
  6
Continuous
 62
     2
100
AcDbLine
 10
-74.0
 20
182.205978069117
 30
0.0
 11
-74.0
 21
204.210245573969
 31
0.0
  0
LINE
  5
4AF
330
4AC
100
AcDbEntity
  8
1
  6
Continuous
 62
     2
100
AcDbLine
 10
-44.0
 20
182.205978069117
 30
0.0
 11
-44.0
 21
204.210245573969
 31
0.0
  0
SOLID
  5
4B0
330
4AC
100
AcDbEntity
  8
1
 62
     2
100
AcDbTrace
 10
-71.0
 20
203.6052030667312
 30
0.0
 11
-71.0
 21
202.8152880812068
 31
0.0
 12
-74.0
 22
203.210245573969
 32
0.0
 13
-74.0
 23
203.210245573969
 33
0.0
  0
SOLID
  5
4B1
330
4AC
100
AcDbEntity
  8
1
 62
     2
100
AcDbTrace
 10
-47.0
 20
202.8152880812068
 30
0.0
 11
-47.0
 21
203.6052030667312
 31
0.0
 12
-44.0
 22
203.210245573969
 32
0.0
 13
-44.0
 23
203.210245573969
 33
0.0
  0
MTEXT
  5
4B2
330
4AC
100
AcDbEntity
  8
1
 62
     4
100
AcDbMText
 10
-61.25
 20
205.210245573969
 30
0.0
 40
3.0
 41
0.0
 71
     7
 72
     1
  1
30
  7
CONVERTER_13
 11
0.9999999999970619
 21
2.424068405545306E-6
 31
0.0
 73
     1
 44
0.60024009603842
  0
ENDBLK
  5
4B4
330
4AC
100
AcDbEntity
  8
0
100
AcDbBlockEnd
  0
BLOCK
  5
4BE
330
4B7
100
AcDbEntity
  8
0
100
AcDbBlockBegin
  2
*D3
 70
     1
 10
0.0
 20
0.0
 30
0.0
  3
*D3
  1

  0
LINE
  5
4B8
330
4B7
100
AcDbEntity
  8
1
  6
Continuous
 62
     2
100
AcDbLine
 10
-26.7629752527608
 20
193.1360289190316
 30
0.0
 11
-26.7629752527608
 21
140.836029681971
 31
0.0
  0
LINE
  5
4B9
330
4B7
100
AcDbEntity
  8
1
  6
Continuous
 62
     2
100
AcDbLine
 10
-44.5
 20
193.1360289190316
 30
0.0
 11
-25.7629752527608
 21
193.1360289190316
 31
0.0
  0
LINE
  5
4BA
330
4B7
100
AcDbEntity
  8
1
  6
Continuous
 62
     2
100
AcDbLine
 10
-43.5
 20
140.836029681971
 30
0.0
 11
-25.7629752527608
 21
140.836029681971
 31
0.0
  0
SOLID
  5
4BB
330
4B7
100
AcDbEntity
  8
1
 62
     2
100
AcDbTrace
 10
-26.36801775999861
 20
190.1360289190316
 30
0.0
 11
-27.15793274552298
 21
190.1360289190316
 31
0.0
 12
-26.7629752527608
 22
193.1360289190316
 32
0.0
 13
-26.7629752527608
 23
193.1360289190316
 33
0.0
  0
SOLID
  5
4BC
330
4B7
100
AcDbEntity
  8
1
 62
     2
100
AcDbTrace
 10
-27.15793274552298
 20
143.836029681971
 30
0.0
 11
-26.36801775999861
 21
143.836029681971
 31
0.0
 12
-26.7629752527608
 22
140.836029681971
 32
0.0
 13
-26.7629752527608
 23
140.836029681971
 33
0.0
  0
MTEXT
  5
4BD
330
4B7
100
AcDbEntity
  8
1
 62
     4
100
AcDbMText
 10
-29.0629752527608
 20
162.8610293005013
 30
0.0
 40
3.0
 41
0.0
 71
     7
 72
     1
  1
52,3
  7
CONVERTER_13
 11
0.0
 21
1.0
 31
0.0
 73
     1
 44
0.60024009603842
  0
ENDBLK
  5
4BF
330
4B7
100
AcDbEntity
  8
0
100
AcDbBlockEnd
  0
ENDSEC
  0
SECTION
  2
ENTITIES
  0
LINE
  5
47
330
1F
100
AcDbEntity
  8
1
  6
Continuous
 62
     7
100
AcDbLine
 10
0.0
 20
297.0000000000001
 30
0.0
 11
-210.0000000000001
 21
297.0000000000001
 31
0.0
  0
LINE
  5
48
330
1F
100
AcDbEntity
  8
1
  6
Continuous
 62
     7
100
AcDbLine
 10
-189.0
 20
20.0
 30
0.0
 11
-5.0
 21
20.0
 31
0.0
  0
LINE
  5
49
330
1F
100
AcDbEntity
  8
1
  6
Continuous
 62
     7
100
AcDbLine
 10
-189.0
 20
4.99999999999989
 30
0.0
 11
-5.0
 21
4.99999999999989
 31
0.0
  0
LINE
  5
4A
330
1F
100
AcDbEntity
  8
1
  6
Continuous
 62
     7
100
AcDbLine
 10
-189.0
 20
40.0
 30
0.0
 11
-5.0
 21
40.0
 31
0.0
  0
LINE
  5
4B
330
1F
100
AcDbEntity
  8
1
  6
Continuous
 62
     7
100
AcDbLine
 10
-189.0
 20
35.0
 30
0.0
 11
-5.0
 21
35.0
 31
0.0
  0
LINE
  5
4C
330
1F
100
AcDbEntity
  8
1
  6
Continuous
 62
     7
100
AcDbLine
 10
-189.0
 20
30.0
 30
0.0
 11
-5.0
 21
30.0
 31
0.0
  0
LINE
  5
4D
330
1F
100
AcDbEntity
  8
1
  6
Continuous
 62
     7
100
AcDbLine
 10
-163.9999999999999
 20
20.0
 30
0.0
 11
-163.9999999999999
 21
40.0
 31
0.0
  0
LINE
  5
4E
330
1F
100
AcDbEntity
  8
1
  6
Continuous
 62
     7
100
AcDbLine
 10
-182.0
 20
20.0
 30
0.0
 11
-182.0
 21
40.0
 31
0.0
  0
LINE
  5
4F
330
1F
100
AcDbEntity
  8
1
  6
Continuous
 62
     7
100
AcDbLine
 10
-189.0
 20
25.0
 30
0.0
 11
-5.0
 21
25.0
 31
0.0
  0
LINE
  5
50
102
{ACAD_REACTORS
330
4C2
102
}
330
1F
100
AcDbEntity
  8
1
  6
Continuous
 62
     7
100
AcDbLine
 10
-14.15712516009418
 20
10.55800208038028
 30
0.0
 11
-15.4904584934275
 21
9.78877131114967
 31
0.0
  0
LINE
  5
51
102
{ACAD_REACTORS
330
4C2
102
}
330
1F
100
AcDbEntity
  8
1
  6
Continuous
 62
     7
100
AcDbLine
 10
-15.32369931125729
 20
10.654636532648
 30
0.0
 11
-14.4902734624205
 21
11.13545913774618
 31
0.0
  0
LINE
  5
52
102
{ACAD_REACTORS
330
4C2
102
}
330
1F
100
AcDbEntity
  8
1
  6
Continuous
 62
     7
100
AcDbLine
 10
-15.32369931125729
 20
12.16666666666657
 30
0.0
 11
-15.32369931125729
 21
10.654636532648
 31
0.0
  0
LINE
  5
53
102
{ACAD_REACTORS
330
4C2
102
}
330
1F
100
AcDbEntity
  8
1
  6
Continuous
 62
     7
100
AcDbLine
 10
-14.32369931125729
 20
12.16666666666657
 30
0.0
 11
-15.32369931125729
 21
12.16666666666657
 31
0.0
  0
LINE
  5
54
102
{ACAD_REACTORS
330
4C2
102
}
330
1F
100
AcDbEntity
  8
1
  6
Continuous
 62
     7
100
AcDbLine
 10
-15.32369931125729
 20
12.83333333333326
 30
0.0
 11
-14.32369931125729
 21
12.83333333333326
 31
0.0
  0
LINE
  5
55
102
{ACAD_REACTORS
330
4C2
102
}
330
1F
100
AcDbEntity
  8
1
  6
Continuous
 62
     7
100
AcDbLine
 10
-15.32369931125729
 20
14.345363467352
 30
0.0
 11
-15.32369931125729
 21
12.83333333333326
 31
0.0
  0
LINE
  5
56
102
{ACAD_REACTORS
330
4C2
102
}
330
1F
100
AcDbEntity
  8
1
  6
Continuous
 62
     7
100
AcDbLine
 10
-14.4902734624205
 20
13.86454086225376
 30
0.0
 11
-15.32369931125729
 21
14.345363467352
 31
0.0
  0
LINE
  5
57
102
{ACAD_REACTORS
330
4C2
102
}
330
1F
100
AcDbEntity
  8
1
  6
Continuous
 62
     7
100
AcDbLine
 10
-15.4904584934275
 20
15.21122868885027
 30
0.0
 11
-14.15712516009418
 21
14.44199791961938
 31
0.0
  0
LINE
  5
58
102
{ACAD_REACTORS
330
4C3
102
}
330
1F
100
AcDbEntity
  8
1
  6
Continuous
 62
     7
100
AcDbLine
 10
-22.65703264459069
 20
10.84673060906317
 30
0.0
 11
-22.65703264459069
 21
14.15326939093666
 31
0.0
  0
LINE
  5
59
102
{ACAD_REACTORS
330
4C3
102
}
330
1F
100
AcDbEntity
  8
1
  6
Continuous
 62
     7
100
AcDbLine
 10
-21.99036597792409
 20
14.15326939093666
 30
0.0
 11
-21.99036597792409
 21
10.84673060906317
 31
0.0
  0
LINE
  5
5A
102
{ACAD_REACTORS
330
4C4
102
}
330
1F
100
AcDbEntity
  8
1
  6
Continuous
 62
     7
100
AcDbLine
 10
-18.8236067957539
 20
8.44261746499581
 30
0.0
 11
-20.99018094691701
 21
9.69256409066691
 31
0.0
  0
LINE
  5
5B
102
{ACAD_REACTORS
330
4C4
102
}
330
1F
100
AcDbEntity
  8
1
  6
Continuous
 62
     7
100
AcDbLine
 10
-20.65703264459069
 20
10.2700211480327
 30
0.0
 11
-18.4904584934275
 21
9.0200745223616
 31
0.0
  0
LINE
  5
5C
102
{ACAD_REACTORS
330
4C4
102
}
330
1F
100
AcDbEntity
  8
1
  6
Continuous
 62
     7
100
AcDbLine
 10
-20.65703264459069
 20
14.92250016016737
 30
0.0
 11
-20.65703264459069
 21
10.2700211480327
 31
0.0
  0
LINE
  5
5D
102
{ACAD_REACTORS
330
4C4
102
}
330
1F
100
AcDbEntity
  8
1
  6
Continuous
 62
     7
100
AcDbLine
 10
-21.32369931125729
 20
10.27002114803258
 30
0.0
 11
-21.32369931125729
 21
14.92250016016737
 31
0.0
  0
LINE
  5
5E
102
{ACAD_REACTORS
330
4C5
102
}
330
1F
100
AcDbEntity
  8
1
  6
Continuous
 62
     7
100
AcDbLine
 10
-17.15146632821399
 20
15.86370041827229
 30
0.0
 11
-18.32369931125729
 21
13.83333333333326
 31
0.0
  0
LINE
  5
5F
102
{ACAD_REACTORS
330
4C5
102
}
330
1F
100
AcDbEntity
  8
1
  6
Continuous
 62
     7
100
AcDbLine
 10
-16.65703264459069
 20
9.3082690706018
 30
0.0
 11
-16.65703264459069
 21
15.73121731203457
 31
0.0
  0
LINE
  5
60
102
{ACAD_REACTORS
330
4C5
102
}
330
1F
100
AcDbEntity
  8
1
  6
Continuous
 62
     7
100
AcDbLine
 10
-19.49593229430059
 20
15.86370041827229
 30
0.0
 11
-18.32369931125729
 21
13.83333333333326
 31
0.0
  0
LINE
  5
61
102
{ACAD_REACTORS
330
4C5
102
}
330
1F
100
AcDbEntity
  8
1
  6
Continuous
 62
     7
100
AcDbLine
 10
-19.99036597792409
 20
10.84758507263291
 30
0.0
 11
-19.99036597792409
 21
15.73121731203457
 31
0.0
  0
LINE
  5
62
330
1F
100
AcDbEntity
  8
1
  6
Continuous
 62
     7
100
AcDbLine
 10
-18.32369931125729
 20
7.5
 30
0.0
 11
-26.74013458639891
 21
12.35563573565861
 31
0.0
  0
LINE
  5
63
330
1F
100
AcDbEntity
  8
1
  6
Continuous
 62
     7
100
AcDbLine
 10
-9.90726403611589
 20
12.35563573565861
 30
0.0
 11
-18.32369931125729
 21
7.5
 31
0.0
  0
LINE
  5
64
330
1F
100
AcDbEntity
  8
1
  6
Continuous
 62
     7
100
AcDbLine
 10
-18.32369931125729
 20
17.5
 30
0.0
 11
-9.90726403611589
 21
12.64436426434128
 31
0.0
  0
LINE
  5
65
330
1F
100
AcDbEntity
  8
1
  6
Continuous
 62
     7
100
AcDbLine
 10
-26.74013458639891
 20
12.64436426434128
 30
0.0
 11
-18.32369931125729
 21
17.5
 31
0.0
  0
LINE
  5
66
102
{ACAD_REACTORS
330
4C5
102
}
330
1F
100
AcDbEntity
  8
1
  6
Continuous
 62
     7
100
AcDbLine
 10
-19.32369931125729
 20
14.23205080756878
 30
0.0
 11
-19.32369931125729
 21
10.84758507263291
 31
0.0
  0
LINE
  5
67
102
{ACAD_REACTORS
330
4C5
102
}
330
1F
100
AcDbEntity
  8
1
  6
Continuous
 62
     7
100
AcDbLine
 10
-18.46803687855478
 20
12.75
 30
0.0
 11
-19.32369931125729
 21
14.23205080756878
 31
0.0
  0
LINE
  5
68
102
{ACAD_REACTORS
330
4C5
102
}
330
1F
100
AcDbEntity
  8
1
  6
Continuous
 62
     7
100
AcDbLine
 10
-17.32369931125729
 20
14.23205080756878
 30
0.0
 11
-18.1793617439599
 21
12.75
 31
0.0
  0
LINE
  5
69
102
{ACAD_REACTORS
330
4C5
102
}
330
1F
100
AcDbEntity
  8
1
  6
Continuous
 62
     7
100
AcDbLine
 10
-17.32369931125729
 20
9.3082690706018
 30
0.0
 11
-17.32369931125729
 21
14.23205080756878
 31
0.0
  0
LINE
  5
6A
102
{ACAD_REACTORS
330
4C2
102
}
330
1F
100
AcDbEntity
  8
1
  6
Continuous
 62
     7
100
AcDbLine
 10
-15.99036597792389
 20
10.07749983983257
 30
0.0
 11
-15.99036597792389
 21
14.92250016016737
 31
0.0
  0
LINE
  5
6B
330
1F
100
AcDbEntity
  8
1
  6
Continuous
 62
     7
100
AcDbLine
 10
-189.0
 20
292.0000000000001
 30
0.0
 11
-189.0
 21
4.99999999999989
 31
0.0
  0
LINE
  5
6C
330
1F
100
AcDbEntity
  8
1
  6
Continuous
 62
     7
100
AcDbLine
 10
-5.0
 20
292.0000000000001
 30
0.0
 11
-189.0
 21
292.0000000000001
 31
0.0
  0
LINE
  5
6D
330
1F
100
AcDbEntity
  8
1
  6
Continuous
 62
     7
100
AcDbLine
 10
-5.0
 20
4.99999999999989
 30
0.0
 11
-5.0
 21
292.0000000000001
 31
0.0
  0
LINE
  5
6E
330
1F
100
AcDbEntity
  8
1
  6
Continuous
 62
     7
100
AcDbLine
 10
-210.0000000000001
 20
297.0000000000001
 30
0.0
 11
-210.0000000000001
 21
0.0
 31
0.0
  0
LINE
  5
6F
330
1F
100
AcDbEntity
  8
1
  6
Continuous
 62
     7
100
AcDbLine
 10
-210.0000000000001
 20
0.0
 30
0.0
 11
0.0
 21
0.0
 31
0.0
  0
LINE
  5
70
330
1F
100
AcDbEntity
  8
1
  6
Continuous
 62
     7
100
AcDbLine
 10
0.0
 20
0.0
 30
0.0
 11
0.0
 21
297.0000000000001
 31
0.0
  0
LINE
  5
71
330
1F
100
AcDbEntity
  8
1
  6
Continuous
 62
     7
100
AcDbLine
 10
-210.0000000000001
 20
148.4999999999998
 30
0.0
 11
-195.0000000000001
 21
148.4999999999998
 31
0.0
  0
LINE
  5
72
330
1F
100
AcDbEntity
  8
1
  6
Continuous
 62
     7
100
AcDbLine
 10
-189.0
 20
12.5
 30
0.0
 11
-159.0
 21
12.5
 31
0.0
  0
LINE
  5
73
330
1F
100
AcDbEntity
  8
1
  6
Continuous
 62
     7
100
AcDbLine
 10
-159.0
 20
20.0
 30
0.0
 11
-159.0
 21
5.0
 31
0.0
  0
LINE
  5
74
330
1F
100
AcDbEntity
  8
1
  6
Continuous
 62
     7
100
AcDbLine
 10
-31.6473986225146
 20
20.0
 30
0.0
 11
-31.6473986225146
 21
5.0
 31
0.0
  0
LINE
  5
75
330
1F
100
AcDbEntity
  8
1
  6
Continuous
 62
     7
100
AcDbLine
 10
-49.0
 20
20.0
 30
0.0
 11
-49.0
 21
5.0
 31
0.0
  0
LINE
  5
76
330
1F
100
AcDbEntity
  8
1
  6
Continuous
 62
     7
100
AcDbLine
 10
-189.0
 20
20.0
 30
0.0
 11
-189.0
 21
4.99999999999989
 31
0.0
  0
LINE
  5
77
330
1F
100
AcDbEntity
  8
0
  6
Continuous
 62
     7
100
AcDbLine
 10
-124.8500003814697
 20
167.1517411802317
 30
0.0
 11
-124.7999992370606
 21
167.1517411802317
 31
0.0
  0
LINE
  5
78
330
1F
100
AcDbEntity
  8
0
  6
Continuous
 62
     7
100
AcDbLine
 10
-120.6000003814697
 20
175.3360306356455
 30
0.0
 11
-119.6999988555908
 21
175.3360306356455
 31
0.0
  0
LINE
  5
79
330
1F
100
AcDbEntity
  8
0
  6
Continuous
 62
     7
100
AcDbLine
 10
-124.8500003814697
 20
172.3360301588083
 30
0.0
 11
-124.8500003814697
 21
175.3360306356455
 31
0.0
  0
LINE
  5
7A
330
1F
100
AcDbEntity
  8
0
  6
Continuous
 62
     7
100
AcDbLine
 10
-119.6999988555908
 20
165.336029205134
 30
0.0
 11
-119.6999988555908
 21
175.3360306356455
 31
0.0
  0
LINE
  5
7B
330
1F
100
AcDbEntity
  8
0
  6
Continuous
 62
     7
100
AcDbLine
 10
-120.6000003814697
 20
161.336029205134
 30
0.0
 11
-120.6000003814697
 21
181.7059780691172
 31
0.0
  0
LINE
  5
7C
330
1F
100
AcDbEntity
  8
0
  6
Continuous
 62
     7
100
AcDbLine
 10
-129.7500004768372
 20
167.1517411802317
 30
0.0
 11
-129.7999997138977
 21
167.1517411802317
 31
0.0
  0
LINE
  5
7D
330
1F
100
AcDbEntity
  8
0
  6
Continuous
 62
     7
100
AcDbLine
 10
-131.0499994754791
 20
175.3360306356455
 30
0.0
 11
-131.0499994754791
 21
172.3360301588083
 31
0.0
  0
LINE
  5
7E
330
1F
100
AcDbEntity
  8
0
  6
Continuous
 62
     7
100
AcDbLine
 10
-124.8500003814697
 20
171.1360293958689
 30
0.0
 11
-129.7500004768372
 21
171.1360293958689
 31
0.0
  0
LINE
  5
7F
330
1F
100
AcDbEntity
  8
0
  6
Continuous
 62
     7
100
AcDbLine
 10
-124.7999992370606
 20
171.3360301588083
 30
0.0
 11
-129.7999997138977
 21
171.3360301588083
 31
0.0
  0
LINE
  5
80
330
1F
100
AcDbEntity
  8
0
  6
Continuous
 62
     7
100
AcDbLine
 10
-125.3500003814697
 20
171.8360301588083
 30
0.0
 11
-130.5499997138977
 21
171.8360301588083
 31
0.0
  0
LINE
  5
81
330
1F
100
AcDbEntity
  8
0
  6
Continuous
 62
     7
100
AcDbLine
 10
-131.0499994754791
 20
175.3360306356455
 30
0.0
 11
-124.8500003814697
 21
175.3360306356455
 31
0.0
  0
LINE
  5
82
330
1F
100
AcDbEntity
  8
0
  6
Continuous
 62
     7
100
AcDbLine
 10
-120.6000003814697
 20
181.7059780691172
 30
0.0
 11
-120.6000003814697
 21
193.1360289190317
 31
0.0
  0
LINE
  5
83
330
1F
100
AcDbEntity
  8
0
  6
Continuous
 62
     7
100
AcDbLine
 10
-150.0
 20
193.1360289190317
 30
0.0
 11
-150.0
 21
181.7059780691172
 31
0.0
  0
LINE
  5
84
330
1F
100
AcDbEntity
  8
0
  6
Continuous
 62
     7
100
AcDbLine
 10
-145.75
 20
167.1517411802317
 30
0.0
 11
-145.8000001907349
 21
167.1517411802317
 31
0.0
  0
LINE
  5
85
330
1F
100
AcDbEntity
  8
0
  6
Continuous
 62
     7
100
AcDbLine
 10
-145.75
 20
175.3360306356455
 30
0.0
 11
-145.75
 21
172.3360301588083
 31
0.0
  0
LINE
  5
86
330
1F
100
AcDbEntity
  8
0
  6
Continuous
 62
     7
100
AcDbLine
 10
-140.8499999046326
 20
171.1360293958689
 30
0.0
 11
-145.75
 21
171.1360293958689
 31
0.0
  0
LINE
  5
87
330
1F
100
AcDbEntity
  8
0
  6
Continuous
 62
     7
100
AcDbLine
 10
-140.7999997138977
 20
171.3360301588083
 30
0.0
 11
-145.8000001907349
 21
171.3360301588083
 31
0.0
  0
LINE
  5
88
330
1F
100
AcDbEntity
  8
0
  6
Continuous
 62
     7
100
AcDbLine
 10
-140.0499997138977
 20
171.8360301588083
 30
0.0
 11
-145.25
 21
171.8360301588083
 31
0.0
  0
LINE
  5
89
330
1F
100
AcDbEntity
  8
0
  6
Continuous
 62
     7
100
AcDbLine
 10
-145.75
 20
175.3360306356455
 30
0.0
 11
-139.5499997138977
 21
175.3360306356455
 31
0.0
  0
LINE
  5
8A
330
1F
100
AcDbEntity
  8
0
  6
Continuous
 62
     7
100
AcDbLine
 10
-150.0
 20
161.336029205134
 30
0.0
 11
-150.0
 21
181.7059780691172
 31
0.0
  0
LINE
  5
8B
330
1F
100
AcDbEntity
  8
0
  6
Continuous
 62
     7
100
AcDbLine
 10
-139.5499997138977
 20
172.3360301588083
 30
0.0
 11
-139.5499997138977
 21
175.3360306356455
 31
0.0
  0
LINE
  5
8C
330
1F
100
AcDbEntity
  8
0
  6
Continuous
 62
     7
100
AcDbLine
 10
-140.7999997138977
 20
167.1517411802317
 30
0.0
 11
-140.8499999046326
 21
167.1517411802317
 31
0.0
  0
LINE
  5
8D
330
1F
100
AcDbEntity
  8
0
  6
Continuous
 62
     7
100
AcDbLine
 10
-124.8500003814697
 20
160.5492054555917
 30
0.0
 11
-124.7999992370606
 21
160.5492054555917
 31
0.0
  0
LINE
  5
8E
330
1F
100
AcDbEntity
  8
0
  6
Continuous
 62
     7
100
AcDbLine
 10
-119.6999988555908
 20
165.336029205134
 30
0.0
 11
-120.6000003814697
 21
165.336029205134
 31
0.0
  0
LINE
  5
8F
330
1F
100
AcDbEntity
  8
0
  6
Continuous
 62
     7
100
AcDbLine
 10
-122.6000003814697
 20
157.8360296819711
 30
0.0
 11
-120.6000003814697
 21
157.8360296819711
 31
0.0
  0
LINE
  5
90
330
1F
100
AcDbEntity
  8
0
  6
Continuous
 62
     7
100
AcDbLine
 10
-120.6000003814697
 20
161.336029205134
 30
0.0
 11
-122.6000003814697
 21
161.336029205134
 31
0.0
  0
LINE
  5
91
330
1F
100
AcDbEntity
  8
0
  6
Continuous
 62
     7
100
AcDbLine
 10
-122.6000003814697
 20
157.8360296819711
 30
0.0
 11
-122.6000003814697
 21
161.336029205134
 31
0.0
  0
LINE
  5
92
330
1F
100
AcDbEntity
  8
0
  6
Continuous
 62
     7
100
AcDbLine
 10
-120.6000003814697
 20
161.336029205134
 30
0.0
 11
-120.6000003814697
 21
157.8360296819711
 31
0.0
  0
LINE
  5
93
330
1F
100
AcDbEntity
  8
0
  6
Continuous
 62
     7
100
AcDbLine
 10
-124.8500003814697
 20
171.1360293958689
 30
0.0
 11
-124.8500003814697
 21
160.1360293958688
 31
0.0
  0
LINE
  5
94
330
1F
100
AcDbEntity
  8
0
  6
Continuous
 62
     7
100
AcDbLine
 10
-124.7999992370606
 20
171.3360301588083
 30
0.0
 11
-124.7999992370606
 21
156.4718577001596
 31
0.0
  0
LINE
  5
95
330
1F
100
AcDbEntity
  8
0
  6
Continuous
 62
     7
100
AcDbLine
 10
-133.1999990940094
 20
161.336029205134
 30
0.0
 11
-133.1999990940094
 21
157.8360296819711
 31
0.0
  0
LINE
  5
96
330
1F
100
AcDbEntity
  8
0
  6
Continuous
 62
     7
100
AcDbLine
 10
-129.7500004768372
 20
160.5492054555917
 30
0.0
 11
-129.7999997138977
 21
160.5492054555917
 31
0.0
  0
LINE
  5
97
330
1F
100
AcDbEntity
  8
0
  6
Continuous
 62
     7
100
AcDbLine
 10
-124.8500003814697
 20
160.1360293958688
 30
0.0
 11
-129.7500004768372
 21
160.1360293958688
 31
0.0
  0
LINE
  5
98
330
1F
100
AcDbEntity
  8
0
  6
Continuous
 62
     7
100
AcDbLine
 10
-129.7999997138977
 20
156.4718577001596
 30
0.0
 11
-124.7999992370606
 21
156.4718577001596
 31
0.0
  0
LINE
  5
99
330
1F
100
AcDbEntity
  8
0
  6
Continuous
 62
     7
100
AcDbLine
 10
-129.7999997138977
 20
156.8039404485727
 30
0.0
 11
-124.7999992370606
 21
156.8039404485727
 31
0.0
  0
LINE
  5
9A
330
1F
100
AcDbEntity
  8
0
  6
Continuous
 62
     7
100
AcDbLine
 10
-129.7500004768372
 20
171.1360293958689
 30
0.0
 11
-129.7500004768372
 21
160.1360293958688
 31
0.0
  0
LINE
  5
9B
330
1F
100
AcDbEntity
  8
0
  6
Continuous
 62
     7
100
AcDbLine
 10
-129.7999997138977
 20
156.4718577001596
 30
0.0
 11
-129.7999997138977
 21
171.3360301588083
 31
0.0
  0
LINE
  5
9C
330
1F
100
AcDbEntity
  8
0
  6
Continuous
 62
     7
100
AcDbLine
 10
-120.6000003814697
 20
140.8360296819711
 30
0.0
 11
-120.6000003814697
 21
157.8360296819711
 31
0.0
  0
LINE
  5
9D
330
1F
100
AcDbEntity
  8
0
  6
Continuous
 62
     7
100
AcDbLine
 10
-133.2999994754791
 20
140.8360296819711
 30
0.0
 11
-133.2999994754791
 21
155.3360296819711
 31
0.0
  0
LINE
  5
9E
330
1F
100
AcDbEntity
  8
0
  6
Continuous
 62
     7
100
AcDbLine
 10
-133.2999994754791
 20
140.8360296819711
 30
0.0
 11
-120.6000003814697
 21
140.8360296819711
 31
0.0
  0
LINE
  5
9F
330
1F
100
AcDbEntity
  8
0
  6
Continuous
 62
     7
100
AcDbLine
 10
-133.1999990940094
 20
161.336029205134
 30
0.0
 11
-137.3999998569489
 21
161.336029205134
 31
0.0
  0
LINE
  5
A0
330
1F
100
AcDbEntity
  8
0
  6
Continuous
 62
     7
100
AcDbLine
 10
-140.7999997138977
 20
160.5492054555917
 30
0.0
 11
-140.8499999046326
 21
160.5492054555917
 31
0.0
  0
LINE
  5
A1
330
1F
100
AcDbEntity
  8
0
  6
Continuous
 62
     7
100
AcDbLine
 10
-137.3999998569489
 20
157.8360296819711
 30
0.0
 11
-137.3999998569489
 21
161.336029205134
 31
0.0
  0
LINE
  5
A2
330
1F
100
AcDbEntity
  8
0
  6
Continuous
 62
     7
100
AcDbLine
 10
-133.2999994754791
 20
155.3360296819711
 30
0.0
 11
-137.2999994754791
 21
155.3360296819711
 31
0.0
  0
LINE
  5
A3
330
1F
100
AcDbEntity
  8
0
  6
Continuous
 62
     7
100
AcDbLine
 10
-137.3999998569489
 20
157.8360296819711
 30
0.0
 11
-133.1999990940094
 21
157.8360296819711
 31
0.0
  0
LINE
  5
A4
330
1F
100
AcDbEntity
  8
0
  6
Continuous
 62
     7
100
AcDbLine
 10
-140.8499999046326
 20
171.1360293958689
 30
0.0
 11
-140.8499999046326
 21
160.1360293958688
 31
0.0
  0
LINE
  5
A5
330
1F
100
AcDbEntity
  8
0
  6
Continuous
 62
     7
100
AcDbLine
 10
-140.7999997138977
 20
171.3360301588083
 30
0.0
 11
-140.7999997138977
 21
156.4718577001596
 31
0.0
  0
LINE
  5
A6
330
1F
100
AcDbEntity
  8
0
  6
Continuous
 62
     7
100
AcDbLine
 10
-145.75
 20
160.5492054555917
 30
0.0
 11
-145.8000001907349
 21
160.5492054555917
 31
0.0
  0
LINE
  5
A7
330
1F
100
AcDbEntity
  8
0
  6
Continuous
 62
     7
100
AcDbLine
 10
-148.0
 20
161.336029205134
 30
0.0
 11
-150.0
 21
161.336029205134
 31
0.0
  0
LINE
  5
A8
330
1F
100
AcDbEntity
  8
0
  6
Continuous
 62
     7
100
AcDbLine
 10
-150.0
 20
157.8360296819711
 30
0.0
 11
-148.0
 21
157.8360296819711
 31
0.0
  0
LINE
  5
A9
330
1F
100
AcDbEntity
  8
0
  6
Continuous
 62
     7
100
AcDbLine
 10
-148.0
 20
157.8360296819711
 30
0.0
 11
-148.0
 21
161.336029205134
 31
0.0
  0
LINE
  5
AA
330
1F
100
AcDbEntity
  8
0
  6
Continuous
 62
     7
100
AcDbLine
 10
-150.0
 20
161.336029205134
 30
0.0
 11
-150.0
 21
157.8360296819711
 31
0.0
  0
LINE
  5
AB
330
1F
100
AcDbEntity
  8
0
  6
Continuous
 62
     7
100
AcDbLine
 10
-140.8499999046326
 20
160.1360293958688
 30
0.0
 11
-145.75
 21
160.1360293958688
 31
0.0
  0
LINE
  5
AC
330
1F
100
AcDbEntity
  8
0
  6
Continuous
 62
     7
100
AcDbLine
 10
-140.7999997138977
 20
156.4718577001596
 30
0.0
 11
-145.8000001907349
 21
156.4718577001596
 31
0.0
  0
LINE
  5
AD
330
1F
100
AcDbEntity
  8
0
  6
Continuous
 62
     7
100
AcDbLine
 10
-145.8000001907349
 20
156.8039404485727
 30
0.0
 11
-140.7999997138977
 21
156.8039404485727
 31
0.0
  0
LINE
  5
AE
330
1F
100
AcDbEntity
  8
0
  6
Continuous
 62
     7
100
AcDbLine
 10
-145.75
 20
171.1360293958689
 30
0.0
 11
-145.75
 21
160.1360293958688
 31
0.0
  0
LINE
  5
AF
330
1F
100
AcDbEntity
  8
0
  6
Continuous
 62
     7
100
AcDbLine
 10
-145.8000001907349
 20
156.4718577001596
 30
0.0
 11
-145.8000001907349
 21
171.3360301588083
 31
0.0
  0
LINE
  5
B0
330
1F
100
AcDbEntity
  8
0
  6
Continuous
 62
     7
100
AcDbLine
 10
-137.2999994754791
 20
140.8360296819711
 30
0.0
 11
-133.2999994754791
 21
140.8360296819711
 31
0.0
  0
LINE
  5
B1
330
1F
100
AcDbEntity
  8
0
  6
Continuous
 62
     7
100
AcDbLine
 10
-137.2999994754791
 20
155.3360296819711
 30
0.0
 11
-137.2999994754791
 21
140.8360296819711
 31
0.0
  0
LINE
  5
B2
330
1F
100
AcDbEntity
  8
0
  6
Continuous
 62
     7
100
AcDbLine
 10
-150.0
 20
157.8360296819711
 30
0.0
 11
-150.0
 21
140.8360296819711
 31
0.0
  0
LINE
  5
B3
330
1F
100
AcDbEntity
  8
0
  6
Continuous
 62
     7
100
AcDbLine
 10
-150.0
 20
140.8360296819711
 30
0.0
 11
-137.2999994754791
 21
140.8360296819711
 31
0.0
  0
LINE
  5
B4
330
1F
100
AcDbEntity
  8
0
  6
Continuous
 62
     7
100
AcDbLine
 10
-150.0
 20
181.7059780691172
 30
0.0
 11
-120.6000003814697
 21
181.7059780691172
 31
0.0
  0
LINE
  5
B5
330
1F
100
AcDbEntity
  8
0
  6
Continuous
 62
     7
100
AcDbLine
 10
-150.0
 20
193.1360289190317
 30
0.0
 11
-120.6000003814697
 21
193.1360289190317
 31
0.0
  0
LINE
  5
B6
330
1F
100
AcDbEntity
  8
0
  6
Continuous
 62
     7
100
AcDbLine
 10
-27.39592089461931
 20
258.0712536509521
 30
0.0
 11
-26.90633832156871
 21
258.3156504285665
 31
0.0
  0
LINE
  5
B7
330
1F
100
AcDbEntity
  8
0
  6
Continuous
 62
     7
100
AcDbLine
 10
-27.74867391621891
 20
257.9039929615967
 30
0.0
 11
-27.39592089461931
 21
258.0712536509521
 31
0.0
  0
LINE
  5
B8
330
1F
100
AcDbEntity
  8
0
  6
Continuous
 62
     7
100
AcDbLine
 10
-27.83293419566581
 20
257.8706848941149
 30
0.0
 11
-27.74867391621891
 21
257.9039929615967
 31
0.0
  0
LINE
  5
B9
330
1F
100
AcDbEntity
  8
0
  6
Continuous
 62
     7
100
AcDbLine
 10
-30.39011110189551
 20
256.592096441
 30
0.0
 11
-27.83293419566581
 21
257.8706848941149
 31
0.0
  0
LINE
  5
BA
330
1F
100
AcDbEntity
  8
0
  6
Continuous
 62
     7
100
AcDbLine
 10
-30.46731287055692
 20
256.5446734844277
 30
0.0
 11
-30.39011110189551
 21
256.592096441
 31
0.0
  0
LINE
  5
BB
330
1F
100
AcDbEntity
  8
0
  6
Continuous
 62
     7
100
AcDbLine
 10
-30.81277408799332
 20
256.3628270542651
 30
0.0
 11
-30.46731287055692
 21
256.5446734844277
 31
0.0
  0
LINE
  5
BC
330
1F
100
AcDbEntity
  8
0
  6
Continuous
 62
     7
100
AcDbLine
 10
-31.35368973404422
 20
256.0919747223287
 30
0.0
 11
-30.81277408799332
 21
256.3628270542651
 31
0.0
  0
LINE
  5
BD
330
1F
100
AcDbEntity
  8
0
  6
Continuous
 62
     7
100
AcDbLine
 10
-33.17381310557622
 20
248.3128491618524
 30
0.0
 11
-33.17149062095493
 21
252.8897475979063
 31
0.0
  0
LINE
  5
BE
330
1F
100
AcDbEntity
  8
0
  6
Continuous
 62
     7
100
AcDbLine
 10
-33.08006605968461
 20
253.5059165650945
 30
0.0
 11
-33.17149062095493
 21
252.8897475979063
 31
0.0
  0
LINE
  5
BF
330
1F
100
AcDbEntity
  8
0
  6
Continuous
 62
     7
100
AcDbLine
 10
-33.06541932993233
 20
253.6490394932919
 30
0.0
 11
-33.08006605968461
 21
253.5059165650945
 31
0.0
  0
LINE
  5
C0
330
1F
100
AcDbEntity
  8
0
  6
Continuous
 62
     7
100
AcDbLine
 10
-33.06628554355203
 20
253.6932520003211
 30
0.0
 11
-33.06541932993233
 21
253.6490394932919
 31
0.0
  0
LINE
  5
C1
330
1F
100
AcDbEntity
  8
0
  6
Continuous
 62
     7
100
AcDbLine
 10
-33.05442767192832
 20
253.7970681931093
 30
0.0
 11
-33.06628554355203
 21
253.6932520003211
 31
0.0
  0
LINE
  5
C2
330
1F
100
AcDbEntity
  8
0
  6
Continuous
 62
     7
100
AcDbLine
 10
-33.01987380928011
 20
253.9037930894356
 30
0.0
 11
-33.05442767192832
 21
253.7970681931093
 31
0.0
  0
LINE
  5
C3
330
1F
100
AcDbEntity
  8
0
  6
Continuous
 62
     7
100
AcDbLine
 10
-32.67414752450523
 20
254.7180008384773
 30
0.0
 11
-33.01987380928011
 21
253.9037930894356
 31
0.0
  0
LINE
  5
C4
330
1F
100
AcDbEntity
  8
0
  6
Continuous
 62
     7
100
AcDbLine
 10
-32.63367517520001
 20
254.7986096713931
 30
0.0
 11
-32.67414752450523
 21
254.7180008384773
 31
0.0
  0
LINE
  5
C5
330
1F
100
AcDbEntity
  8
0
  6
Continuous
 62
     7
100
AcDbLine
 10
-32.58442446950554
 20
254.8727229684016
 30
0.0
 11
-32.63367517520001
 21
254.7986096713931
 31
0.0
  0
LINE
  5
C6
330
1F
100
AcDbEntity
  8
0
  6
Continuous
 62
     7
100
AcDbLine
 10
-32.04142069845122
 20
255.5699127637574
 30
0.0
 11
-32.58442446950554
 21
254.8727229684016
 31
0.0
  0
LINE
  5
C7
330
1F
100
AcDbEntity
  8
0
  6
Continuous
 62
     7
100
AcDbLine
 10
-31.99989255800111
 20
255.614730682029
 30
0.0
 11
-32.04142069845122
 21
255.5699127637574
 31
0.0
  0
LINE
  5
C8
330
1F
100
AcDbEntity
  8
0
  6
Continuous
 62
     7
100
AcDbLine
 10
-31.95443063058832
 20
255.6457207430987
 30
0.0
 11
-31.99989255800111
 21
255.614730682029
 31
0.0
  0
LINE
  5
C9
330
1F
100
AcDbEntity
  8
0
  6
Continuous
 62
     7
100
AcDbLine
 10
-31.93654636878941
 20
255.6533204774605
 30
0.0
 11
-31.95443063058832
 21
255.6457207430987
 31
0.0
  0
LINE
  5
CA
330
1F
100
AcDbEntity
  8
0
  6
Continuous
 62
     7
100
AcDbLine
 10
-31.88771746775751
 20
255.6843856018473
 30
0.0
 11
-31.93654636878941
 21
255.6533204774605
 31
0.0
  0
LINE
  5
CB
330
1F
100
AcDbEntity
  8
0
  6
Continuous
 62
     7
100
AcDbLine
 10
-31.75603807020332
 20
255.7801472021617
 30
0.0
 11
-31.88771746775751
 21
255.6843856018473
 31
0.0
  0
LINE
  5
CC
330
1F
100
AcDbEntity
  8
0
  6
Continuous
 62
     7
100
AcDbLine
 10
-31.35368973404422
 20
256.0919747223287
 30
0.0
 11
-31.75603807020332
 21
255.7801472021617
 31
0.0
  0
LINE
  5
CD
330
1F
100
AcDbEntity
  8
0
  6
Continuous
 62
     7
100
AcDbLine
 10
-26.85726994296542
 20
258.3313390883398
 30
0.0
 11
-26.86823857017902
 21
258.3467658794954
 31
0.0
  0
LINE
  5
CE
330
1F
100
AcDbEntity
  8
0
  6
Continuous
 62
     7
100
AcDbLine
 10
-26.90633832156871
 20
258.3156504285665
 30
0.0
 11
-26.85726994296542
 21
258.3313390883398
 31
0.0
  0
LINE
  5
CF
330
1F
100
AcDbEntity
  8
0
  6
Continuous
 62
     7
100
AcDbLine
 10
-22.43398925475933
 20
237.3606894857311
 30
0.0
 11
-22.43248038848472
 21
237.361162480819
 31
0.0
  0
LINE
  5
D0
330
1F
100
AcDbEntity
  8
0
  6
Continuous
 62
     7
100
AcDbLine
 10
-22.44110072806163
 20
237.3584602014029
 30
0.0
 11
-22.43398925475933
 21
237.3606894857311
 31
0.0
  0
LINE
  5
D1
330
1F
100
AcDbEntity
  8
0
  6
Continuous
 62
     7
100
AcDbLine
 10
-22.44177800390023
 20
237.357831546122
 30
0.0
 11
-22.44982513269193
 21
237.4750608286354
 31
0.0
  0
LINE
  5
D2
330
1F
100
AcDbEntity
  8
0
  6
Continuous
 62
     7
100
AcDbLine
 10
-22.43248038848472
 20
237.361162480819
 30
0.0
 11
-22.44177800390023
 21
237.357831546122
 31
0.0
  0
LINE
  5
D3
330
1F
100
AcDbEntity
  8
0
  6
Continuous
 62
     7
100
AcDbLine
 10
-22.45482537320251
 20
237.3780129160232
 30
0.0
 11
-22.44110072806163
 21
237.3584602014029
 31
0.0
  0
LINE
  5
D4
330
1F
100
AcDbEntity
  8
0
  6
Continuous
 62
     7
100
AcDbLine
 10
-22.48425019351183
 20
237.3952834499055
 30
0.0
 11
-22.45482537320251
 21
237.3780129160232
 31
0.0
  0
LINE
  5
D5
330
1F
100
AcDbEntity
  8
0
  6
Continuous
 62
     7
100
AcDbLine
 10
-22.4502337159748
 20
239.2892883178048
 30
0.0
 11
-22.44982513269193
 21
237.4750608286354
 31
0.0
  0
LINE
  5
D6
330
1F
100
AcDbEntity
  8
0
  6
Continuous
 62
     7
100
AcDbLine
 10
-22.45156608985363
 20
239.3473527790667
 30
0.0
 11
-22.4502337159748
 21
239.2892883178048
 31
0.0
  0
LINE
  5
D7
330
1F
100
AcDbEntity
  8
0
  6
Continuous
 62
     7
100
AcDbLine
 10
-22.45156694284592
 20
239.3590724659475
 30
0.0
 11
-22.45156608985363
 21
239.3473527790667
 31
0.0
  0
LINE
  5
D8
330
1F
100
AcDbEntity
  8
0
  6
Continuous
 62
     7
100
AcDbLine
 10
-22.45156694284592
 20
239.3825105602208
 30
0.0
 11
-22.45156694284592
 21
239.3590724659475
 31
0.0
  0
LINE
  5
D9
330
1F
100
AcDbEntity
  8
0
  6
Continuous
 62
     7
100
AcDbLine
 10
-22.45037019473321
 20
239.4314266797092
 30
0.0
 11
-22.45156694284592
 21
239.3825105602208
 31
0.0
  0
LINE
  5
DA
330
1F
100
AcDbEntity
  8
0
  6
Continuous
 62
     7
100
AcDbLine
 10
-22.4521478305613
 20
241.1273334827943
 30
0.0
 11
-22.45037019473321
 21
239.4314266797092
 31
0.0
  0
LINE
  5
DB
330
1F
100
AcDbEntity
  8
0
  6
Continuous
 62
     7
100
AcDbLine
 10
-33.17406740388773
 20
238.4217022869315
 30
0.0
 11
-31.86807454920782
 21
239.0746987142714
 31
0.0
  0
LINE
  5
DC
330
1F
100
AcDbEntity
  8
0
  6
Continuous
 62
     7
100
AcDbLine
 10
-31.86332439535963
 20
239.0799057254322
 30
0.0
 11
-31.86332380892742
 21
248.9683678339339
 31
0.0
  0
LINE
  5
DD
330
1F
100
AcDbEntity
  8
0
  6
Continuous
 62
     7
100
AcDbLine
 10
-15.94362426348121
 20
247.0369238571347
 30
0.0
 11
-14.63763002268891
 21
247.6899209775309
 31
0.0
  0
LINE
  5
DE
330
1F
100
AcDbEntity
  8
0
  6
Continuous
 62
     7
100
AcDbLine
 10
-21.01557071373921
 20
261.2346879677898
 30
0.0
 11
-20.95900432009873
 21
261.2893174293014
 31
0.0
  0
LINE
  5
DF
330
1F
100
AcDbEntity
  8
0
  6
Continuous
 62
     7
100
AcDbLine
 10
-21.07426894823541
 20
261.1977354909629
 30
0.0
 11
-21.01557071373921
 21
261.2346879677898
 31
0.0
  0
LINE
  5
E0
330
1F
100
AcDbEntity
  8
0
  6
Continuous
 62
     7
100
AcDbLine
 10
-21.2299489884451
 20
260.9975177404324
 30
0.0
 11
-21.07426894823541
 21
261.1977354909629
 31
0.0
  0
LINE
  5
E1
330
1F
100
AcDbEntity
  8
0
  6
Continuous
 62
     7
100
AcDbLine
 10
-21.33565327955643
 20
260.7493042490404
 30
0.0
 11
-21.2299489884451
 21
260.9975177404324
 31
0.0
  0
LINE
  5
E2
330
1F
100
AcDbEntity
  8
0
  6
Continuous
 62
     7
100
AcDbLine
 10
-21.36007423413824
 20
260.5440312399998
 30
0.0
 11
-21.33565327955643
 21
260.7493042490404
 31
0.0
  0
LINE
  5
E3
330
1F
100
AcDbEntity
  8
0
  6
Continuous
 62
     7
100
AcDbLine
 10
-21.36280700802692
 20
260.525877432653
 30
0.0
 11
-21.36007423413824
 21
260.5440312399998
 31
0.0
  0
LINE
  5
E4
330
1F
100
AcDbEntity
  8
0
  6
Continuous
 62
     7
100
AcDbLine
 10
-21.36301407189322
 20
259.3894576226671
 30
0.0
 11
-21.36513077213661
 21
258.5344250252771
 31
0.0
  0
LINE
  5
E5
330
1F
100
AcDbEntity
  8
0
  6
Continuous
 62
     7
100
AcDbLine
 10
-21.36335143032412
 20
259.4314427537098
 30
0.0
 11
-21.36301407189322
 21
259.3894576226671
 31
0.0
  0
LINE
  5
E6
330
1F
100
AcDbEntity
  8
0
  6
Continuous
 62
     7
100
AcDbLine
 10
-21.36321473831762
 20
259.5104080838272
 30
0.0
 11
-21.36335143032412
 21
259.4314427537098
 31
0.0
  0
LINE
  5
E7
330
1F
100
AcDbEntity
  8
0
  6
Continuous
 62
     7
100
AcDbLine
 10
-21.36280700802692
 20
260.525877432653
 30
0.0
 11
-21.36321473831762
 21
259.5104080838272
 31
0.0
  0
LINE
  5
E8
330
1F
100
AcDbEntity
  8
0
  6
Continuous
 62
     7
100
AcDbLine
 10
-20.90361718823002
 20
261.3178623881153
 30
0.0
 11
-16.5116546136077
 21
263.512992282547
 31
0.0
  0
LINE
  5
E9
330
1F
100
AcDbEntity
  8
0
  6
Continuous
 62
     7
100
AcDbLine
 10
-16.3484729331436
 20
263.557915118864
 30
0.0
 11
-16.5116546136077
 21
263.512992282547
 31
0.0
  0
LINE
  5
EA
330
1F
100
AcDbEntity
  8
0
  6
Continuous
 62
     7
100
AcDbLine
 10
-16.155275521996
 20
263.6199980265683
 30
0.0
 11
-16.3484729331436
 21
263.557915118864
 31
0.0
  0
LINE
  5
EB
330
1F
100
AcDbEntity
  8
0
  6
Continuous
 62
     7
100
AcDbLine
 10
-16.08822691996681
 20
263.6566357492588
 30
0.0
 11
-16.155275521996
 21
263.6199980265683
 31
0.0
  0
LINE
  5
EC
330
1F
100
AcDbEntity
  8
0
  6
Continuous
 62
     7
100
AcDbLine
 10
-15.95949418410552
 20
263.7120435661893
 30
0.0
 11
-16.08822691996681
 21
263.6566357492588
 31
0.0
  0
LINE
  5
ED
330
1F
100
AcDbEntity
  8
0
  6
Continuous
 62
     7
100
AcDbLine
 10
-15.72120994888272
 20
263.6718232760911
 30
0.0
 11
-15.95949418410552
 21
263.7120435661893
 31
0.0
  0
LINE
  5
EE
330
1F
100
AcDbEntity
  8
0
  6
Continuous
 62
     7
100
AcDbLine
 10
-15.56875891079721
 20
263.5848777770728
 30
0.0
 11
-15.72120994888272
 21
263.6718232760911
 31
0.0
  0
LINE
  5
EF
330
1F
100
AcDbEntity
  8
0
  6
Continuous
 62
     7
100
AcDbLine
 10
-21.36538325783963
 20
258.5288609568959
 30
0.0
 11
-26.44631512835332
 21
255.9883950216391
 31
0.0
  0
LINE
  5
F0
330
1F
100
AcDbEntity
  8
0
  6
Continuous
 62
     7
100
AcDbLine
 10
-33.17381061629644
 20
238.4218306808059
 30
0.0
 11
-33.17149104745101
 21
233.8460153664184
 31
0.0
  0
LINE
  5
F1
330
1F
100
AcDbEntity
  8
0
  6
Continuous
 62
     7
100
AcDbLine
 10
-33.17381337213632
 20
238.4272671283369
 30
0.0
 11
-33.17381061629644
 21
238.4218306808059
 31
0.0
  0
LINE
  5
F2
330
1F
100
AcDbEntity
  8
0
  6
Continuous
 62
     7
100
AcDbLine
 10
-32.71616720173361
 20
232.7053711123641
 30
0.0
 11
-32.79193743616821
 21
232.748814540265
 31
0.0
  0
LINE
  5
F3
330
1F
100
AcDbEntity
  8
0
  6
Continuous
 62
     7
100
AcDbLine
 10
-32.76755827820622
 20
232.7124432710255
 30
0.0
 11
-32.71616720173361
 21
232.7053711123641
 31
0.0
  0
LINE
  5
F4
330
1F
100
AcDbEntity
  8
0
  6
Continuous
 62
     7
100
AcDbLine
 10
-32.87117124559322
 20
232.7969534771987
 30
0.0
 11
-32.76755827820622
 21
232.7124432710255
 31
0.0
  0
LINE
  5
F5
330
1F
100
AcDbEntity
  8
0
  6
Continuous
 62
     7
100
AcDbLine
 10
-32.89953046534683
 20
232.8980515035902
 30
0.0
 11
-32.87117124559322
 21
232.7969534771987
 31
0.0
  0
LINE
  5
F6
330
1F
100
AcDbEntity
  8
0
  6
Continuous
 62
     7
100
AcDbLine
 10
-33.07192552824262
 20
233.1163828642082
 30
0.0
 11
-32.89953046534683
 21
232.8980515035902
 31
0.0
  0
LINE
  5
F7
330
1F
100
AcDbEntity
  8
0
  6
Continuous
 62
     7
100
AcDbLine
 10
-33.08879536902023
 20
233.1528345279663
 30
0.0
 11
-33.07192552824262
 21
233.1163828642082
 31
0.0
  0
LINE
  5
F8
330
1F
100
AcDbEntity
  8
0
  6
Continuous
 62
     7
100
AcDbLine
 10
-33.09295946388764
 20
233.2611446037466
 30
0.0
 11
-33.08879536902023
 21
233.1528345279663
 31
0.0
  0
LINE
  5
F9
330
1F
100
AcDbEntity
  8
0
  6
Continuous
 62
     7
100
AcDbLine
 10
-33.08964601553151
 20
233.3177084384103
 30
0.0
 11
-33.09295946388764
 21
233.2611446037466
 31
0.0
  0
LINE
  5
FA
330
1F
100
AcDbEntity
  8
0
  6
Continuous
 62
     7
100
AcDbLine
 10
-33.09296607457742
 20
233.3513366978542
 30
0.0
 11
-33.08964601553151
 21
233.3177084384103
 31
0.0
  0
LINE
  5
FB
330
1F
100
AcDbEntity
  8
0
  6
Continuous
 62
     7
100
AcDbLine
 10
-33.10673998002014
 20
233.4778300092135
 30
0.0
 11
-33.09296607457742
 21
233.3513366978542
 31
0.0
  0
LINE
  5
FC
330
1F
100
AcDbEntity
  8
0
  6
Continuous
 62
     7
100
AcDbLine
 10
-33.17149104745101
 20
233.8460153664184
 30
0.0
 11
-33.10673998002014
 21
233.4778300092135
 31
0.0
  0
LINE
  5
FD
330
1F
100
AcDbEntity
  8
0
  6
Continuous
 62
     7
100
AcDbLine
 10
-48.90852385367671
 20
270.4122282387533
 30
0.0
 11
-48.90852385367683
 21
272.14427909527
 31
0.0
  0
LINE
  5
FE
330
1F
100
AcDbEntity
  8
0
  6
Continuous
 62
     7
100
AcDbLine
 10
-38.51405525677942
 20
275.6094628955992
 30
0.0
 11
-38.51405417023472
 21
277.3415139653644
 31
0.0
  0
LINE
  5
FF
330
1F
100
AcDbEntity
  8
0
  6
Continuous
 62
     7
100
AcDbLine
 10
-44.34243681673198
 20
263.8133203517948
 30
0.0
 11
-41.47745296885441
 21
265.2458125211456
 31
0.0
  0
LINE
  5
100
330
1F
100
AcDbEntity
  8
0
  6
Continuous
 62
     7
100
AcDbLine
 10
-33.02872782173981
 20
269.4701748492909
 30
0.0
 11
-30.16374518566232
 21
270.9026664127426
 31
0.0
  0
LINE
  5
101
330
1F
100
AcDbEntity
  8
0
  6
Continuous
 62
     7
100
AcDbLine
 10
-45.1658832261559
 20
274.6548684042178
 30
0.0
 11
-45.16588365265201
 21
276.3869201137267
 31
0.0
  0
LINE
  5
102
330
1F
100
AcDbEntity
  8
0
  6
Continuous
 62
     2
100
AcDbLine
 10
-43.04456380758921
 20
273.5942089170815
 30
0.0
 11
-43.04456317674342
 21
275.3262590227801
 31
0.0
  0
LINE
  5
103
330
1F
100
AcDbEntity
  8
0
  6
Continuous
 62
     2
100
AcDbLine
 10
-42.33745567323612
 20
273.5942086090717
 30
0.0
 11
-42.33745649360591
 21
275.3262598757724
 31
0.0
  0
LINE
  5
104
330
1F
100
AcDbEntity
  8
0
  6
Continuous
 62
     2
100
AcDbLine
 10
-38.66050250898391
 20
277.1647368680834
 30
0.0
 11
-38.66050208248782
 21
275.4326862248148
 31
0.0
  0
LINE
  5
105
330
1F
100
AcDbEntity
  8
0
  6
Continuous
 62
     7
100
AcDbLine
 10
-38.66050165599174
 20
277.518289783156
 30
0.0
 11
-40.78182255839641
 21
278.5789506608545
 31
0.0
  0
LINE
  5
106
330
1F
100
AcDbEntity
  8
0
  6
Continuous
 62
     7
100
AcDbLine
 10
-45.16588365265201
 20
276.3869201137267
 30
0.0
 11
-43.04456317674342
 21
275.3262590227801
 31
0.0
  0
LINE
  5
107
330
1F
100
AcDbEntity
  8
0
  6
Continuous
 62
     7
100
AcDbLine
 10
-43.04456380758921
 20
273.5942089170815
 30
0.0
 11
-45.1658832261559
 21
274.6548684042178
 31
0.0
  0
LINE
  5
108
330
1F
100
AcDbEntity
  8
0
  6
Continuous
 62
     7
100
AcDbLine
 10
-38.66050250898391
 20
277.1647368680834
 30
0.0
 11
-42.33745649360591
 21
275.3262598757724
 31
0.0
  0
LINE
  5
109
330
1F
100
AcDbEntity
  8
0
  6
Continuous
 62
     7
100
AcDbLine
 10
-45.16588365265201
 20
276.3869201137267
 30
0.0
 11
-40.78182255839641
 21
278.5789506608545
 31
0.0
  0
LINE
  5
10A
330
1F
100
AcDbEntity
  8
0
  6
Continuous
 62
     7
100
AcDbLine
 10
-42.28085150206661
 20
280.6016183192515
 30
0.0
 11
-50.36311888260252
 21
283.7767264746371
 31
0.0
  0
LINE
  5
10B
330
1F
100
AcDbEntity
  8
0
  6
Continuous
 62
     7
100
AcDbLine
 10
-26.81646322070222
 20
271.455209852678
 30
0.0
 11
-29.29133554544322
 21
272.6926469746648
 31
0.0
  0
LINE
  5
10C
330
1F
100
AcDbEntity
  8
0
  6
Continuous
 62
     7
100
AcDbLine
 10
-27.64229938645511
 20
270.1464531965167
 30
0.0
 11
-30.21477670882334
 21
270.8771503479666
 31
0.0
  0
LINE
  5
10D
330
1F
100
AcDbEntity
  8
0
  6
Continuous
 62
     7
100
AcDbLine
 10
-30.94301512738292
 20
268.4273185617454
 30
0.0
 11
-27.40748085870322
 21
270.1950856960853
 31
0.0
  0
LINE
  5
10E
330
1F
100
AcDbEntity
  8
0
  6
Continuous
 62
     7
100
AcDbLine
 10
-31.01179190053441
 20
268.461706939477
 30
0.0
 11
-27.64229938645511
 21
270.1464531965167
 31
0.0
  0
LINE
  5
10F
330
1F
100
AcDbEntity
  8
0
  6
Continuous
 62
     7
100
AcDbLine
 10
-30.03379833043053
 20
271.4728876903549
 30
0.0
 11
-30.03379833043053
 21
271.1731035676238
 31
0.0
  0
LINE
  5
110
330
1F
100
AcDbEntity
  8
0
  6
Continuous
 62
     7
100
AcDbLine
 10
-27.40748085870322
 20
270.1950856960853
 30
0.0
 11
-27.64229938645511
 21
270.1464531965167
 31
0.0
  0
LINE
  5
111
330
1F
100
AcDbEntity
  8
0
  6
Continuous
 62
     7
100
AcDbLine
 10
-26.81646322070222
 20
271.455209852678
 30
0.0
 11
-25.40224985442723
 21
272.1623165358155
 31
0.0
  0
LINE
  5
112
330
1F
100
AcDbEntity
  8
0
  6
Continuous
 62
     7
100
AcDbLine
 10
-27.87712217916823
 20
273.3997536578023
 30
0.0
 11
-29.29133554544322
 21
272.6926469746648
 31
0.0
  0
LINE
  5
113
330
1F
100
AcDbEntity
  8
0
  6
Continuous
 62
     7
100
AcDbLine
 10
-27.87712217916823
 20
273.3997536578023
 30
0.0
 11
-27.87712270151721
 21
271.9855399716375
 31
0.0
  0
LINE
  5
114
330
1F
100
AcDbEntity
  8
0
  6
Continuous
 62
     7
100
AcDbLine
 10
-13.38143410860923
 20
266.1519088761546
 30
0.0
 11
-25.40224985442723
 21
272.1623165358155
 31
0.0
  0
LINE
  5
115
330
1F
100
AcDbEntity
  8
0
  6
Continuous
 62
     7
100
AcDbLine
 10
-37.91803929750043
 20
275.4503640624917
 30
0.0
 11
-37.91803926267701
 21
275.3089422370459
 31
0.0
  0
LINE
  5
116
330
1F
100
AcDbEntity
  8
0
  6
Continuous
 62
     7
100
AcDbLine
 10
-36.78666706909442
 20
268.9449812128391
 30
0.0
 11
-39.75651607656343
 21
267.4600567091047
 31
0.0
  0
LINE
  5
117
330
1F
100
AcDbEntity
  8
0
  6
Continuous
 62
     7
100
AcDbLine
 10
-37.81197312443143
 20
275.3619753006034
 30
0.0
 11
-41.27679646889973
 21
273.6295636283692
 31
0.0
  0
LINE
  5
118
330
1F
100
AcDbEntity
  8
0
  6
Continuous
 62
     7
100
AcDbLine
 10
-37.91803929750043
 20
275.4503640624917
 30
0.0
 11
-41.45357313968401
 21
273.6825971413999
 31
0.0
  0
LINE
  5
119
330
1F
100
AcDbEntity
  8
0
  6
Continuous
 62
     7
100
AcDbLine
 10
-42.33745567323612
 20
273.5942086090717
 30
0.0
 11
-38.66050208248782
 21
275.4326862248148
 31
0.0
  0
LINE
  5
11A
330
1F
100
AcDbEntity
  8
0
  6
Continuous
 62
     7
100
AcDbLine
 10
-41.27679646889973
 20
273.6295636283692
 30
0.0
 11
-33.49862124840271
 21
269.7404762313688
 31
0.0
  0
LINE
  5
11B
330
1F
100
AcDbEntity
  8
0
  6
Continuous
 62
     7
100
AcDbLine
 10
-37.81197312443143
 20
275.3619753006034
 30
0.0
 11
-30.03379833043053
 21
271.4728876903549
 31
0.0
  0
LINE
  5
11C
330
1F
100
AcDbEntity
  8
0
  6
Continuous
 62
     7
100
AcDbLine
 10
-41.27679646889973
 20
273.5942088548346
 30
0.0
 11
-41.45357313968401
 21
273.6825971413999
 31
0.0
  0
LINE
  5
11D
330
1F
100
AcDbEntity
  8
0
  6
Continuous
 62
     7
100
AcDbLine
 10
-30.94301512738292
 20
268.4273185617454
 30
0.0
 11
-41.27679646889973
 21
273.5942088548346
 31
0.0
  0
LINE
  5
11E
330
1F
100
AcDbEntity
  8
0
  6
Continuous
 62
     7
100
AcDbLine
 10
-37.91803929750043
 20
275.4503640624917
 30
0.0
 11
-27.40748085870322
 21
270.1950856960853
 31
0.0
  0
LINE
  5
11F
330
1F
100
AcDbEntity
  8
0
  6
Continuous
 62
     7
100
AcDbLine
 10
-41.27679646889973
 20
273.5942088548346
 30
0.0
 11
-41.27679646889973
 21
273.6295636283692
 31
0.0
  0
LINE
  5
120
330
1F
100
AcDbEntity
  8
0
  6
Continuous
 62
     7
100
AcDbLine
 10
-49.12568122749565
 20
269.7051212490713
 30
0.0
 11
-41.34750654011882
 21
265.8160335855108
 31
0.0
  0
LINE
  5
121
330
1F
100
AcDbEntity
  8
0
  6
Continuous
 62
     7
100
AcDbLine
 10
-49.23174761381276
 20
269.7935099043355
 30
0.0
 11
-38.7211903478798
 21
264.538230951497
 31
0.0
  0
LINE
  5
122
330
1F
100
AcDbEntity
  8
0
  6
Continuous
 62
     7
100
AcDbLine
 10
-36.78666770883862
 20
267.2129305695705
 30
0.0
 11
-36.78666706909442
 21
268.9449812128391
 31
0.0
  0
LINE
  5
123
330
1F
100
AcDbEntity
  8
0
  6
Continuous
 62
     7
100
AcDbLine
 10
-32.6147374146727
 20
264.190229629794
 30
0.0
 11
-32.61473768123281
 21
266.788305914569
 31
0.0
  0
LINE
  5
124
330
1F
100
AcDbEntity
  8
0
  6
Continuous
 62
     7
100
AcDbLine
 10
-36.78666706909442
 20
268.9449812128391
 30
0.0
 11
-34.31179389136122
 21
267.7075445173485
 31
0.0
  0
LINE
  5
125
330
1F
100
AcDbEntity
  8
0
  6
Continuous
 62
     7
100
AcDbLine
 10
-36.78666770883862
 20
267.2129305695705
 30
0.0
 11
-36.04384458689933
 21
266.8415191366119
 31
0.0
  0
LINE
  5
126
330
1F
100
AcDbEntity
  8
0
  6
Continuous
 62
     7
100
AcDbLine
 10
-32.61473768123281
 20
266.788305914569
 30
0.0
 11
-35.44316526677503
 21
265.3740921217979
 31
0.0
  0
LINE
  5
127
330
1F
100
AcDbEntity
  8
0
  6
Continuous
 62
     7
100
AcDbLine
 10
-32.84508902968821
 20
264.0750538222863
 30
0.0
 11
-32.6147374146727
 21
264.190229629794
 31
0.0
  0
LINE
  5
128
330
1F
100
AcDbEntity
  8
0
  6
Continuous
 62
     7
100
AcDbLine
 10
-37.28164247233411
 20
266.2226202268621
 30
0.0
 11
-34.31179389136122
 21
267.7075445173485
 31
0.0
  0
LINE
  5
129
330
1F
100
AcDbEntity
  8
0
  6
Continuous
 62
     7
100
AcDbLine
 10
-30.03379833043053
 20
271.4728876903549
 30
0.0
 11
-33.49862124840271
 21
269.7404762313688
 31
0.0
  0
LINE
  5
12A
330
1F
100
AcDbEntity
  8
0
  6
Continuous
 62
     2
100
AcDbLine
 10
-30.03379833043053
 20
271.1731035676238
 30
0.0
 11
-33.2341917335049
 21
269.5729068660866
 31
0.0
  0
LINE
  5
12B
330
1F
100
AcDbEntity
  8
0
  6
Continuous
 62
     7
100
AcDbLine
 10
-37.28164247233411
 20
266.2226202268621
 30
0.0
 11
-39.75651607656343
 21
267.4600567091047
 31
0.0
  0
LINE
  5
12C
330
1F
100
AcDbEntity
  8
0
  6
Continuous
 62
     7
100
AcDbLine
 10
-41.52848480978472
 20
265.2202963554995
 30
0.0
 11
-38.95600844913562
 21
264.4895986651764
 31
0.0
  0
LINE
  5
12D
330
1F
100
AcDbEntity
  8
0
  6
Continuous
 62
     7
100
AcDbLine
 10
-38.0244656137763
 20
266.5940316171017
 30
0.0
 11
-36.78666770883862
 21
267.2129305695705
 31
0.0
  0
LINE
  5
12E
330
1F
100
AcDbEntity
  8
0
  6
Continuous
 62
     7
100
AcDbLine
 10
-41.34750654011882
 20
265.8160335855108
 30
0.0
 11
-44.81232975130712
 21
264.0836219799166
 31
0.0
  0
LINE
  5
12F
330
1F
100
AcDbEntity
  8
0
  6
Continuous
 62
     2
100
AcDbLine
 10
-41.34750654011882
 20
265.5162494627796
 30
0.0
 11
-44.54790081298566
 21
263.9160523263462
 31
0.0
  0
LINE
  5
130
330
1F
100
AcDbEntity
  8
0
  6
Continuous
 62
     7
100
AcDbLine
 10
-38.7211903478798
 20
264.538230951497
 30
0.0
 11
-42.25672419006341
 21
262.7704640304052
 31
0.0
  0
LINE
  5
131
330
1F
100
AcDbEntity
  8
0
  6
Continuous
 62
     7
100
AcDbLine
 10
-42.32550095754522
 20
262.8048524109716
 30
0.0
 11
-38.95600844913562
 21
264.4895986651764
 31
0.0
  0
LINE
  5
132
330
1F
100
AcDbEntity
  8
0
  6
Continuous
 62
     7
100
AcDbLine
 10
-33.49862124840271
 20
269.7404762313688
 30
0.0
 11
-33.49862134899914
 21
269.7051215688463
 31
0.0
  0
LINE
  5
133
330
1F
100
AcDbEntity
  8
0
  6
Continuous
 62
     7
100
AcDbLine
 10
-41.34750654011882
 20
265.8160335855108
 30
0.0
 11
-41.34750654011882
 21
265.5162494627796
 31
0.0
  0
LINE
  5
134
330
1F
100
AcDbEntity
  8
0
  6
Continuous
 62
     7
100
AcDbLine
 10
-44.81232975130712
 20
264.0836219799166
 30
0.0
 11
-44.81232977016924
 21
264.0482668199719
 31
0.0
  0
LINE
  5
135
330
1F
100
AcDbEntity
  8
0
  6
Continuous
 62
     7
100
AcDbLine
 10
-38.95600844913562
 20
264.4895986651764
 30
0.0
 11
-38.7211903478798
 21
264.538230951497
 31
0.0
  0
LINE
  5
136
330
1F
100
AcDbEntity
  8
0
  6
Continuous
 62
     7
100
AcDbLine
 10
-46.19118800200451
 20
261.7678474620269
 30
0.0
 11
-34.17037246943451
 21
255.7574396957419
 31
0.0
  0
LINE
  5
137
330
1F
100
AcDbEntity
  8
0
  6
Continuous
 62
     7
100
AcDbLine
 10
-27.87712217916823
 20
273.3997536578023
 30
0.0
 11
-42.28085150206661
 21
280.6016183192515
 31
0.0
  0
LINE
  5
138
330
1F
100
AcDbEntity
  8
0
  6
Continuous
 62
     7
100
AcDbLine
 10
-53.43903349103167
 20
268.3969740753605
 30
0.0
 11
-55.5603532595608
 21
269.4576333875154
 31
0.0
  0
LINE
  5
139
330
1F
100
AcDbEntity
  8
0
  6
Continuous
 62
     7
100
AcDbLine
 10
-49.0549706498123
 20
272.3210552862457
 30
0.0
 11
-51.17629141893701
 21
273.3817162305842
 31
0.0
  0
LINE
  5
13A
330
1F
100
AcDbEntity
  8
0
  6
Continuous
 62
     7
100
AcDbLine
 10
-49.05497099634042
 20
271.9675026244052
 30
0.0
 11
-52.73192652701081
 21
270.12902485907
 31
0.0
  0
LINE
  5
13B
330
1F
100
AcDbEntity
  8
0
  6
Continuous
 62
     7
100
AcDbLine
 10
-55.56035368605691
 20
271.1896850970243
 30
0.0
 11
-51.17629141893701
 21
273.3817162305842
 31
0.0
  0
LINE
  5
13C
330
1F
100
AcDbEntity
  8
0
  6
Continuous
 62
     7
100
AcDbLine
 10
-55.5603532595608
 20
269.4576333875154
 30
0.0
 11
-55.56035368605691
 21
271.1896850970243
 31
0.0
  0
LINE
  5
13D
330
1F
100
AcDbEntity
  8
0
  6
Continuous
 62
     2
100
AcDbLine
 10
-53.43903349103167
 20
268.3969740753605
 30
0.0
 11
-53.43903278365218
 21
270.1290242193258
 31
0.0
  0
LINE
  5
13E
330
1F
100
AcDbEntity
  8
0
  6
Continuous
 62
     2
100
AcDbLine
 10
-52.73192570664165
 20
268.3969735923688
 30
0.0
 11
-52.73192652701081
 21
270.12902485907
 31
0.0
  0
LINE
  5
13F
330
1F
100
AcDbEntity
  8
0
  6
Continuous
 62
     2
100
AcDbLine
 10
-49.05497099634042
 20
271.9675026244052
 30
0.0
 11
-49.05497017597074
 21
270.2354513577043
 31
0.0
  0
LINE
  5
140
330
1F
100
AcDbEntity
  8
0
  6
Continuous
 62
     7
100
AcDbLine
 10
-55.56035368605691
 20
271.1896850970243
 30
0.0
 11
-53.43903278365218
 21
270.1290242193258
 31
0.0
  0
LINE
  5
141
330
1F
100
AcDbEntity
  8
0
  6
Continuous
 62
     7
100
AcDbLine
 10
-71.15205766992395
 20
273.3822570809764
 30
0.0
 11
-50.36311888260252
 21
283.7767264746371
 31
0.0
  0
LINE
  5
142
330
1F
100
AcDbEntity
  8
0
  6
Continuous
 62
     7
100
AcDbLine
 10
-70.44495013379421
 20
268.539657213251
 30
0.0
 11
-71.15205681693169
 21
268.1861038716822
 31
0.0
  0
LINE
  5
143
330
1F
100
AcDbEntity
  8
0
  6
Continuous
 62
     7
100
AcDbLine
 10
-71.15205766992395
 20
271.6502051582194
 30
0.0
 11
-71.15205766992395
 21
273.3822570809764
 31
0.0
  0
LINE
  5
144
330
1F
100
AcDbEntity
  8
0
  6
Continuous
 62
     7
100
AcDbLine
 10
-70.44495081267013
 20
271.2966517599441
 30
0.0
 11
-70.44495013379421
 21
268.539657213251
 31
0.0
  0
LINE
  5
145
330
1F
100
AcDbEntity
  8
0
  6
Continuous
 62
     7
100
AcDbLine
 10
-71.15205766992395
 20
273.3822570809764
 30
0.0
 11
-63.06979071588413
 21
270.2071487123427
 31
0.0
  0
LINE
  5
146
330
1F
100
AcDbEntity
  8
0
  6
Continuous
 62
     7
100
AcDbLine
 10
-71.15205724342783
 20
254.3296978725413
 30
0.0
 11
-71.15205681693169
 21
268.1861038716822
 31
0.0
  0
LINE
  5
147
330
1F
100
AcDbEntity
  8
0
  6
Continuous
 62
     7
100
AcDbLine
 10
-58.24816189116132
 20
262.4412635052252
 30
0.0
 11
-70.44495013379421
 21
268.539657213251
 31
0.0
  0
LINE
  5
148
330
1F
100
AcDbEntity
  8
0
  6
Continuous
 62
     7
100
AcDbLine
 10
-58.56555751588738
 20
265.3569555076973
 30
0.0
 11
-71.15205766992395
 21
271.6502051582194
 31
0.0
  0
LINE
  5
149
330
1F
100
AcDbEntity
  8
0
  6
Continuous
 62
     7
100
AcDbLine
 10
-71.15205681693169
 20
268.1861038716822
 30
0.0
 11
-58.56555751588738
 21
261.892853794664
 31
0.0
  0
LINE
  5
14A
330
1F
100
AcDbEntity
  8
0
  6
Continuous
 62
     7
100
AcDbLine
 10
-52.59050470526674
 20
267.9373542880068
 30
0.0
 11
-52.59050467858796
 21
267.9727095235251
 31
0.0
  0
LINE
  5
14B
330
1F
100
AcDbEntity
  8
0
  6
Continuous
 62
     7
100
AcDbLine
 10
-49.12568122749565
 20
269.7051212490713
 30
0.0
 11
-52.59050467858796
 21
267.9727095235251
 31
0.0
  0
LINE
  5
14C
330
1F
100
AcDbEntity
  8
0
  6
Continuous
 62
     7
100
AcDbLine
 10
-49.23174761381276
 20
269.7935099043355
 30
0.0
 11
-52.76728177586847
 21
268.0257428233077
 31
0.0
  0
LINE
  5
14D
330
1F
100
AcDbEntity
  8
0
  6
Continuous
 62
     7
100
AcDbLine
 10
-52.73192570664165
 20
268.3969735923688
 30
0.0
 11
-49.05497017597074
 21
270.2354513577043
 31
0.0
  0
LINE
  5
14E
330
1F
100
AcDbEntity
  8
0
  6
Continuous
 62
     7
100
AcDbLine
 10
-52.59050467858796
 20
267.9727095235251
 30
0.0
 11
-44.81232975130712
 21
264.0836219799166
 31
0.0
  0
LINE
  5
14F
330
1F
100
AcDbEntity
  8
0
  6
Continuous
 62
     7
100
AcDbLine
 10
-52.59050470526674
 20
267.9373542880068
 30
0.0
 11
-52.76728177586847
 21
268.0257428233077
 31
0.0
  0
LINE
  5
150
330
1F
100
AcDbEntity
  8
0
  6
Continuous
 62
     7
100
AcDbLine
 10
-42.25672419006341
 20
262.7704640304052
 30
0.0
 11
-52.59050470526674
 21
267.9373542880068
 31
0.0
  0
LINE
  5
151
330
1F
100
AcDbEntity
  8
0
  6
Continuous
 62
     7
100
AcDbLine
 10
-58.56555708939126
 20
262.2825659037804
 30
0.0
 11
-51.4944887652799
 21
258.7470316351007
 31
0.0
  0
LINE
  5
152
330
1F
100
AcDbEntity
  8
0
  6
Continuous
 62
     7
100
AcDbLine
 10
-51.49448855203184
 20
261.4317101961414
 30
0.0
 11
-58.56555751588738
 21
264.9672446780692
 31
0.0
  0
LINE
  5
153
330
1F
100
AcDbEntity
  8
0
  6
Continuous
 62
     7
100
AcDbLine
 10
-57.85845040625375
 20
262.6361192453491
 30
0.0
 11
-51.49448866167242
 21
259.4541382770968
 31
0.0
  0
LINE
  5
154
330
1F
100
AcDbEntity
  8
0
  6
Continuous
 62
     7
100
AcDbLine
 10
-51.49448855203184
 20
261.4317101961414
 30
0.0
 11
-51.4944887652799
 21
258.7470316351007
 31
0.0
  0
LINE
  5
155
330
1F
100
AcDbEntity
  8
0
  6
Continuous
 62
     7
100
AcDbLine
 10
-44.77697442248146
 20
262.4749542517884
 30
0.0
 11
-47.2518479200867
 21
263.712390787343
 31
0.0
  0
LINE
  5
156
330
1F
100
AcDbEntity
  8
0
  6
Continuous
 62
     7
100
AcDbLine
 10
-47.25184802671075
 20
261.9803404106345
 30
0.0
 11
-46.19118797383274
 21
261.4500102928035
 31
0.0
  0
LINE
  5
157
330
1F
100
AcDbEntity
  8
0
  6
Continuous
 62
     7
100
AcDbLine
 10
-48.6660616062338
 20
261.273233620873
 30
0.0
 11
-46.19118800200451
 21
260.0357966055103
 31
0.0
  0
LINE
  5
158
330
1F
100
AcDbEntity
  8
0
  6
Continuous
 62
     7
100
AcDbLine
 10
-58.56555708939126
 20
262.2825659037804
 30
0.0
 11
-58.56555751588738
 21
261.892853794664
 31
0.0
  0
LINE
  5
159
330
1F
100
AcDbEntity
  8
0
  6
Continuous
 62
     7
100
AcDbLine
 10
-58.56555751588738
 20
265.3569555076973
 30
0.0
 11
-58.56555751588738
 21
264.9672446780692
 31
0.0
  0
LINE
  5
15A
330
1F
100
AcDbEntity
  8
0
  6
Continuous
 62
     7
100
AcDbLine
 10
-57.85845040625375
 20
262.6361192453491
 30
0.0
 11
-58.56555708939126
 21
262.2825659037804
 31
0.0
  0
LINE
  5
15B
330
1F
100
AcDbEntity
  8
0
  6
Continuous
 62
     7
100
AcDbLine
 10
-47.2518479200867
 20
263.712390787343
 30
0.0
 11
-48.66606139298574
 21
263.0052840508935
 31
0.0
  0
LINE
  5
15C
330
1F
100
AcDbEntity
  8
0
  6
Continuous
 62
     7
100
AcDbLine
 10
-46.19118800200451
 20
261.7678474620269
 30
0.0
 11
-44.77697442248146
 21
262.4749542517884
 31
0.0
  0
LINE
  5
15D
330
1F
100
AcDbEntity
  8
0
  6
Continuous
 62
     7
100
AcDbLine
 10
-48.6660616062338
 20
261.273233620873
 30
0.0
 11
-47.25184802671075
 21
261.9803404106345
 31
0.0
  0
LINE
  5
15E
330
1F
100
AcDbEntity
  8
0
  6
Continuous
 62
     7
100
AcDbLine
 10
-47.25184802671075
 20
261.9803404106345
 30
0.0
 11
-47.2518479200867
 21
263.712390787343
 31
0.0
  0
LINE
  5
15F
330
1F
100
AcDbEntity
  8
0
  6
Continuous
 62
     7
100
AcDbLine
 10
-48.66606139298574
 20
263.0052840508935
 30
0.0
 11
-48.6660616062338
 21
261.273233620873
 31
0.0
  0
LINE
  5
160
330
1F
100
AcDbEntity
  8
0
  6
Continuous
 62
     7
100
AcDbLine
 10
-46.19118800200451
 20
261.7678474620269
 30
0.0
 11
-46.19118800200451
 21
260.0357966055103
 31
0.0
  0
LINE
  5
161
330
1F
100
AcDbEntity
  8
0
  6
Continuous
 62
     7
100
AcDbLine
 10
-49.23174761381276
 20
269.7935099043355
 30
0.0
 11
-49.23174761381276
 21
269.652088061478
 31
0.0
  0
LINE
  5
162
330
1F
100
AcDbEntity
  8
0
  6
Continuous
 62
     7
100
AcDbLine
 10
-48.66606139298574
 20
263.0052840508935
 30
0.0
 11
-63.06979071588413
 21
270.2071487123427
 31
0.0
  0
LINE
  5
163
330
1F
100
AcDbEntity
  8
0
  6
Continuous
 62
     7
100
AcDbLine
 10
-70.44495141328255
 20
251.2191490745806
 30
0.0
 11
-71.15205809642006
 21
250.8655957330119
 31
0.0
  0
LINE
  5
164
330
1F
100
AcDbEntity
  8
0
  6
Continuous
 62
     7
100
AcDbLine
 10
-71.15205681693172
 20
249.1335455162394
 30
0.0
 11
-71.15205809642006
 21
250.8655957330119
 31
0.0
  0
LINE
  5
165
330
1F
100
AcDbEntity
  8
0
  6
Continuous
 62
     7
100
AcDbLine
 10
-70.44495073440658
 20
253.9761446098645
 30
0.0
 11
-70.44495141328255
 21
251.2191490745806
 31
0.0
  0
LINE
  5
166
330
1F
100
AcDbEntity
  8
0
  6
Continuous
 62
     7
100
AcDbLine
 10
-63.06979028938801
 20
244.226386077841
 30
0.0
 11
-71.15205681693172
 21
249.1335455162394
 31
0.0
  0
LINE
  5
167
330
1F
100
AcDbEntity
  8
0
  6
Continuous
 62
     7
100
AcDbLine
 10
-71.15205809642006
 20
250.8655957330119
 30
0.0
 11
-58.56555772913546
 21
244.5723456559936
 31
0.0
  0
LINE
  5
168
330
1F
100
AcDbEntity
  8
0
  6
Continuous
 62
     7
100
AcDbLine
 10
-58.56555679617517
 20
248.036447635587
 30
0.0
 11
-71.15205724342783
 21
254.3296978725413
 31
0.0
  0
LINE
  5
169
330
1F
100
AcDbEntity
  8
0
  6
Continuous
 62
     7
100
AcDbLine
 10
-58.24816294056015
 20
245.1207549415421
 30
0.0
 11
-70.44495141328255
 21
251.2191490745806
 31
0.0
  0
LINE
  5
16A
330
1F
100
AcDbEntity
  8
0
  6
Continuous
 62
     7
100
AcDbLine
 10
-63.06979071588413
 20
270.2071487123427
 30
0.0
 11
-42.28085150206661
 21
280.6016183192515
 31
0.0
  0
LINE
  5
16B
330
1F
100
AcDbEntity
  8
0
  6
Continuous
 62
     2
100
AcDbLine
 10
-15.44952530976812
 20
263.5246006539405
 30
0.0
 11
-15.56875891079721
 21
263.5848777770728
 31
0.0
  0
LINE
  5
16C
330
1F
100
AcDbEntity
  8
0
  6
Continuous
 62
     7
100
AcDbLine
 10
-16.02327560773151
 20
263.6845914263018
 30
0.0
 11
-16.03079729817952
 21
263.6851943559485
 31
0.0
  0
LINE
  5
16D
330
1F
100
AcDbEntity
  8
0
  6
Continuous
 62
     7
100
AcDbLine
 10
-15.71752331642162
 20
263.6600826909004
 30
0.0
 11
-16.02327560773151
 21
263.6845914263018
 31
0.0
  0
LINE
  5
16E
330
1F
100
AcDbEntity
  8
0
  6
Continuous
 62
     7
100
AcDbLine
 10
-15.56875891079721
 20
263.5848777770728
 30
0.0
 11
-15.71752331642162
 21
263.6600826909004
 31
0.0
  0
LINE
  5
16F
330
1F
100
AcDbEntity
  8
0
  6
Continuous
 62
     2
100
AcDbLine
 10
-15.23015745695463
 20
263.3067174341206
 30
0.0
 11
-15.44952530976812
 21
263.5246006539405
 31
0.0
  0
LINE
  5
170
330
1F
100
AcDbEntity
  8
0
  6
Continuous
 62
     2
100
AcDbLine
 10
-15.00934079682153
 20
262.8438403421184
 30
0.0
 11
-15.23015745695463
 21
263.3067174341206
 31
0.0
  0
LINE
  5
171
330
1F
100
AcDbEntity
  8
0
  6
Continuous
 62
     2
100
AcDbLine
 10
-14.9347709357165
 20
262.2541088031672
 30
0.0
 11
-15.00934079682153
 21
262.8438403421184
 31
0.0
  0
LINE
  5
172
330
1F
100
AcDbEntity
  8
0
  6
Continuous
 62
     2
100
AcDbLine
 10
-15.73894706952021
 20
263.9903971118839
 30
0.0
 11
-16.35488594205171
 21
263.7943487874223
 31
0.0
  0
LINE
  5
173
330
1F
100
AcDbEntity
  8
0
  6
Continuous
 62
     2
100
AcDbLine
 10
-15.17610760367003
 20
263.945681126185
 30
0.0
 11
-15.73894706952021
 21
263.9903971118839
 31
0.0
  0
LINE
  5
174
330
1F
100
AcDbEntity
  8
0
  6
Continuous
 62
     2
100
AcDbLine
 10
-14.85471228279553
 20
263.7831976198694
 30
0.0
 11
-15.17610760367003
 21
263.945681126185
 31
0.0
  0
LINE
  5
175
330
1F
100
AcDbEntity
  8
0
  6
Continuous
 62
     2
100
AcDbLine
 10
-14.5912666957266
 20
263.5216424768523
 30
0.0
 11
-14.85471228279553
 21
263.7831976198694
 31
0.0
  0
LINE
  5
176
330
1F
100
AcDbEntity
  8
0
  6
Continuous
 62
     2
100
AcDbLine
 10
-14.32523163746532
 20
262.9657056374558
 30
0.0
 11
-14.5912666957266
 21
263.5216424768523
 31
0.0
  0
LINE
  5
177
330
1F
100
AcDbEntity
  8
0
  6
Continuous
 62
     2
100
AcDbLine
 10
-14.23388704421754
 20
262.2571680598358
 30
0.0
 11
-14.32523163746532
 21
262.9657056374558
 31
0.0
  0
LINE
  5
178
330
1F
100
AcDbEntity
  8
0
  6
Continuous
 62
     2
100
AcDbLine
 10
-16.35488594205171
 20
263.7943487874223
 30
0.0
 11
-20.80223564854273
 21
261.5706739341768
 31
0.0
  0
LINE
  5
179
330
1F
100
AcDbEntity
  8
0
  6
Continuous
 62
     7
100
AcDbLine
 10
-22.36168864325853
 20
261.6617816088299
 30
0.0
 11
-13.38143410860923
 21
266.1519088761546
 31
0.0
  0
LINE
  5
17A
330
1F
100
AcDbEntity
  8
0
  6
Continuous
 62
     7
100
AcDbLine
 10
-25.19011708179303
 20
260.2475673895627
 30
0.0
 11
-25.19011601555272
 21
257.6494916379079
 31
0.0
  0
LINE
  5
17B
330
1F
100
AcDbEntity
  8
0
  6
Continuous
 62
     7
100
AcDbLine
 10
-25.19011601555272
 20
257.6494916379079
 30
0.0
 11
-22.36168928300273
 21
259.0637050041829
 31
0.0
  0
LINE
  5
17C
330
1F
100
AcDbEntity
  8
0
  6
Continuous
 62
     2
100
AcDbLine
 10
-14.9347709357165
 20
262.2541088031672
 30
0.0
 11
-17.06344799658061
 21
263.23720255138
 31
0.0
  0
LINE
  5
17D
330
1F
100
AcDbEntity
  8
0
  6
Continuous
 62
     2
100
AcDbLine
 10
-14.93477114896461
 20
257.8032341062446
 30
0.0
 11
-14.9347709357165
 21
262.2541088031672
 31
0.0
  0
LINE
  5
17E
330
1F
100
AcDbEntity
  8
0
  6
Continuous
 62
     2
100
AcDbLine
 10
-14.23388789720971
 20
257.3733456361303
 30
0.0
 11
-14.23388704421754
 21
262.2571680598358
 31
0.0
  0
LINE
  5
17F
330
1F
100
AcDbEntity
  8
0
  6
Continuous
 62
     7
100
AcDbLine
 10
-13.38143410860923
 20
266.1519088761546
 30
0.0
 11
-13.38143346886511
 21
256.1926175707361
 31
0.0
  0
LINE
  5
180
330
1F
100
AcDbEntity
  8
0
  6
Continuous
 62
     2
100
AcDbLine
 10
-21.42626621871042
 20
260.4061488828766
 30
0.0
 11
-21.50923421491382
 21
260.3512835690107
 31
0.0
  0
LINE
  5
181
330
1F
100
AcDbEntity
  8
0
  6
Continuous
 62
     2
100
AcDbLine
 10
-21.37404262181161
 20
260.4753154646376
 30
0.0
 11
-21.42626621871042
 21
260.4061488828766
 31
0.0
  0
LINE
  5
182
330
1F
100
AcDbEntity
  8
0
  6
Continuous
 62
     2
100
AcDbLine
 10
-21.36280700802692
 20
260.525877432653
 30
0.0
 11
-21.37404262181161
 21
260.4753154646376
 31
0.0
  0
LINE
  5
183
330
1F
100
AcDbEntity
  8
0
  6
Continuous
 62
     7
100
AcDbLine
 10
-16.45626748173893
 20
263.5415372413608
 30
0.0
 11
-16.5116546136077
 21
263.512992282547
 31
0.0
  0
LINE
  5
184
330
1F
100
AcDbEntity
  8
0
  6
Continuous
 62
     2
100
AcDbLine
 10
-16.41132289411971
 20
263.5878709268428
 30
0.0
 11
-16.45626748173893
 21
263.5415372413608
 31
0.0
  0
LINE
  5
185
330
1F
100
AcDbEntity
  8
0
  6
Continuous
 62
     2
100
AcDbLine
 10
-16.36826661807172
 20
263.6830362855814
 30
0.0
 11
-16.41132289411971
 21
263.5878709268428
 31
0.0
  0
LINE
  5
186
330
1F
100
AcDbEntity
  8
0
  6
Continuous
 62
     2
100
AcDbLine
 10
-16.35488594205171
 20
263.7943487874223
 30
0.0
 11
-16.36826661807172
 21
263.6830362855814
 31
0.0
  0
LINE
  5
187
330
1F
100
AcDbEntity
  8
0
  6
Continuous
 62
     2
100
AcDbLine
 10
-14.34362023092623
 20
262.2156827822457
 30
0.0
 11
-14.23388704421754
 21
262.2571680598358
 31
0.0
  0
LINE
  5
188
330
1F
100
AcDbEntity
  8
0
  6
Continuous
 62
     2
100
AcDbLine
 10
-14.48195360769623
 20
262.1895714102925
 30
0.0
 11
-14.34362023092623
 21
262.2156827822457
 31
0.0
  0
LINE
  5
189
330
1F
100
AcDbEntity
  8
0
  6
Continuous
 62
     2
100
AcDbLine
 10
-14.58307946295952
 20
262.183953176904
 30
0.0
 11
-14.48195360769623
 21
262.1895714102925
 31
0.0
  0
LINE
  5
18A
330
1F
100
AcDbEntity
  8
0
  6
Continuous
 62
     2
100
AcDbLine
 10
-14.6843833803529
 20
262.188688136828
 30
0.0
 11
-14.58307946295952
 21
262.183953176904
 31
0.0
  0
LINE
  5
18B
330
1F
100
AcDbEntity
  8
0
  6
Continuous
 62
     2
100
AcDbLine
 10
-14.82360770751762
 20
262.2135891127928
 30
0.0
 11
-14.6843833803529
 21
262.188688136828
 31
0.0
  0
LINE
  5
18C
330
1F
100
AcDbEntity
  8
0
  6
Continuous
 62
     2
100
AcDbLine
 10
-14.9347709357165
 20
262.2541088031672
 30
0.0
 11
-14.82360770751762
 21
262.2135891127928
 31
0.0
  0
LINE
  5
18D
330
1F
100
AcDbEntity
  8
0
  6
Continuous
 62
     2
100
AcDbLine
 10
-20.85867260061082
 20
261.3641960735973
 30
0.0
 11
-20.90361718823002
 21
261.3178623881153
 31
0.0
  0
LINE
  5
18E
330
1F
100
AcDbEntity
  8
0
  6
Continuous
 62
     2
100
AcDbLine
 10
-20.81561803054731
 20
261.4593605793436
 30
0.0
 11
-20.85867260061082
 21
261.3641960735973
 31
0.0
  0
LINE
  5
18F
330
1F
100
AcDbEntity
  8
0
  6
Continuous
 62
     2
100
AcDbLine
 10
-20.80223564854273
 20
261.5706739341768
 30
0.0
 11
-20.81561803054731
 21
261.4593605793436
 31
0.0
  0
LINE
  5
190
330
1F
100
AcDbEntity
  8
0
  6
Continuous
 62
     7
100
AcDbLine
 10
-14.37099403139462
 20
257.4682248159724
 30
0.0
 11
-14.23388789720971
 21
257.3733456361303
 31
0.0
  0
LINE
  5
191
330
1F
100
AcDbEntity
  8
0
  6
Continuous
 62
     7
100
AcDbLine
 10
-14.5420496832256
 20
257.5782795807555
 30
0.0
 11
-14.37099403139462
 21
257.4682248159724
 31
0.0
  0
LINE
  5
192
330
1F
100
AcDbEntity
  8
0
  6
Continuous
 62
     7
100
AcDbLine
 10
-14.63890609907992
 20
257.6375267157581
 30
0.0
 11
-14.5420496832256
 21
257.5782795807555
 31
0.0
  0
LINE
  5
193
330
1F
100
AcDbEntity
  8
0
  6
Continuous
 62
     7
100
AcDbLine
 10
-14.71457418769381
 20
257.6823156322934
 30
0.0
 11
-14.63890609907992
 21
257.6375267157581
 31
0.0
  0
LINE
  5
194
330
1F
100
AcDbEntity
  8
0
  6
Continuous
 62
     7
100
AcDbLine
 10
-14.82922786013862
 20
257.7473665264967
 30
0.0
 11
-14.71457418769381
 21
257.6823156322934
 31
0.0
  0
LINE
  5
195
330
1F
100
AcDbEntity
  8
0
  6
Continuous
 62
     7
100
AcDbLine
 10
-14.88411833727562
 20
257.7770259196721
 30
0.0
 11
-14.82922786013862
 21
257.7473665264967
 31
0.0
  0
LINE
  5
196
330
1F
100
AcDbEntity
  8
0
  6
Continuous
 62
     7
100
AcDbLine
 10
-14.93477114896461
 20
257.8032341062446
 30
0.0
 11
-14.88411833727562
 21
257.7770259196721
 31
0.0
  0
LINE
  5
197
330
1F
100
AcDbEntity
  8
0
  6
Continuous
 62
     7
100
AcDbLine
 10
-15.68428007635012
 20
256.8175708652594
 30
0.0
 11
-15.54203509041574
 21
256.7192720395273
 31
0.0
  0
LINE
  5
198
330
1F
100
AcDbEntity
  8
0
  6
Continuous
 62
     7
100
AcDbLine
 10
-15.70424563921452
 20
256.830786274033
 30
0.0
 11
-15.68428007635012
 21
256.8175708652594
 31
0.0
  0
LINE
  5
199
330
1F
100
AcDbEntity
  8
0
  6
Continuous
 62
     7
100
AcDbLine
 10
-15.85201119092594
 20
256.9253353458782
 30
0.0
 11
-15.70424563921452
 21
256.830786274033
 31
0.0
  0
LINE
  5
19A
330
1F
100
AcDbEntity
  8
0
  6
Continuous
 62
     7
100
AcDbLine
 10
-15.89558885848064
 20
256.9522353091573
 30
0.0
 11
-15.85201119092594
 21
256.9253353458782
 31
0.0
  0
LINE
  5
19B
330
1F
100
AcDbEntity
  8
0
  6
Continuous
 62
     7
100
AcDbLine
 10
-16.02499844368433
 20
257.0295675856314
 30
0.0
 11
-15.89558885848064
 21
256.9522353091573
 31
0.0
  0
LINE
  5
19C
330
1F
100
AcDbEntity
  8
0
  6
Continuous
 62
     7
100
AcDbLine
 10
-16.08693079825824
 20
257.0651305380995
 30
0.0
 11
-16.02499844368433
 21
257.0295675856314
 31
0.0
  0
LINE
  5
19D
330
1F
100
AcDbEntity
  8
0
  6
Continuous
 62
     7
100
AcDbLine
 10
-16.18237807093212
 20
257.1176953318943
 30
0.0
 11
-16.08693079825824
 21
257.0651305380995
 31
0.0
  0
LINE
  5
19E
330
1F
100
AcDbEntity
  8
0
  6
Continuous
 62
     7
100
AcDbLine
 10
-16.2429183421705
 20
257.1491605096416
 30
0.0
 11
-16.18237807093212
 21
257.1176953318943
 31
0.0
  0
LINE
  5
19F
330
1F
100
AcDbEntity
  8
0
  6
Continuous
 62
     2
100
AcDbLine
 10
-21.4789088480471
 20
260.6173501879849
 30
0.0
 11
-21.50923421491382
 21
260.3512835690107
 31
0.0
  0
LINE
  5
1A0
330
1F
100
AcDbEntity
  8
0
  6
Continuous
 62
     2
100
AcDbLine
 10
-21.39002641689993
 20
260.8920891790627
 30
0.0
 11
-21.4789088480471
 21
260.6173501879849
 31
0.0
  0
LINE
  5
1A1
330
1F
100
AcDbEntity
  8
0
  6
Continuous
 62
     2
100
AcDbLine
 10
-21.30186113897852
 20
261.0676435119672
 30
0.0
 11
-21.39002641689993
 21
260.8920891790627
 31
0.0
  0
LINE
  5
1A2
330
1F
100
AcDbEntity
  8
0
  6
Continuous
 62
     2
100
AcDbLine
 10
-21.19454469253373
 20
261.2290053334873
 30
0.0
 11
-21.30186113897852
 21
261.0676435119672
 31
0.0
  0
LINE
  5
1A3
330
1F
100
AcDbEntity
  8
0
  6
Continuous
 62
     2
100
AcDbLine
 10
-21.00677742998562
 20
261.431381580881
 30
0.0
 11
-21.19454469253373
 21
261.2290053334873
 31
0.0
  0
LINE
  5
1A4
330
1F
100
AcDbEntity
  8
0
  6
Continuous
 62
     2
100
AcDbLine
 10
-20.80223564854273
 20
261.5706739341768
 30
0.0
 11
-21.00677742998562
 21
261.431381580881
 31
0.0
  0
LINE
  5
1A5
330
1F
100
AcDbEntity
  8
0
  6
Continuous
 62
     2
100
AcDbLine
 10
-15.54203509041574
 20
256.7192720395273
 30
0.0
 11
-14.23388789720971
 21
257.3733456361303
 31
0.0
  0
LINE
  5
1A6
330
1F
100
AcDbEntity
  8
0
  6
Continuous
 62
     2
100
AcDbLine
 10
-16.2429183421705
 20
257.1491605096416
 30
0.0
 11
-14.93477114896461
 21
257.8032341062446
 31
0.0
  0
LINE
  5
1A7
330
1F
100
AcDbEntity
  8
0
  6
Continuous
 62
     7
100
AcDbLine
 10
-13.38143346886511
 20
256.1926175707361
 30
0.0
 11
-14.76029201277854
 21
255.5031882987794
 31
0.0
  0
LINE
  5
1A8
330
1F
100
AcDbEntity
  8
0
  6
Continuous
 62
     2
100
AcDbLine
 10
-21.50923421491382
 20
260.3512835690107
 30
0.0
 11
-21.50923506790602
 21
258.662399024541
 31
0.0
  0
LINE
  5
1A9
330
1F
100
AcDbEntity
  8
0
  6
Continuous
 62
     7
100
AcDbLine
 10
-22.36168928300273
 20
259.0637050041829
 30
0.0
 11
-22.36168864325853
 21
261.6617816088299
 31
0.0
  0
LINE
  5
1AA
330
1F
100
AcDbEntity
  8
0
  6
Continuous
 62
     7
100
AcDbLine
 10
-14.93477114896461
 20
257.8032341062446
 30
0.0
 11
-21.23780390734513
 21
260.9790533503193
 31
0.0
  0
LINE
  5
1AB
330
1F
100
AcDbEntity
  8
0
  6
Continuous
 62
     7
100
AcDbLine
 10
-21.3631270280687
 20
259.7290061835982
 30
0.0
 11
-16.2429183421705
 21
257.1491605096416
 31
0.0
  0
LINE
  5
1AC
330
1F
100
AcDbEntity
  8
0
  6
Continuous
 62
     7
100
AcDbLine
 10
-22.36168864325853
 20
261.6617816088299
 30
0.0
 11
-32.61473768123281
 21
266.788305914569
 31
0.0
  0
LINE
  5
1AD
330
1F
100
AcDbEntity
  8
0
  6
Continuous
 62
     7
100
AcDbLine
 10
-13.38143346886503
 20
250.130440106048
 30
0.0
 11
-14.76029201173893
 21
250.8198692627722
 31
0.0
  0
LINE
  5
1AE
330
1F
100
AcDbEntity
  8
0
  6
Continuous
 62
     7
100
AcDbLine
 10
-21.36513077213661
 20
258.5344250252771
 30
0.0
 11
-21.36538325783963
 21
258.5288609568959
 31
0.0
  0
LINE
  5
1AF
330
1F
100
AcDbEntity
  8
0
  6
Continuous
 62
     7
100
AcDbLine
 10
-21.41206624364381
 20
258.5874888195323
 30
0.0
 11
-21.36513077213661
 21
258.5344250252771
 31
0.0
  0
LINE
  5
1B0
330
1F
100
AcDbEntity
  8
0
  6
Continuous
 62
     7
100
AcDbLine
 10
-21.50923506790602
 20
258.662399024541
 30
0.0
 11
-21.41206624364381
 21
258.5874888195323
 31
0.0
  0
LINE
  5
1B1
330
1F
100
AcDbEntity
  8
0
  6
Continuous
 62
     2
100
AcDbLine
 10
-21.50923506790602
 20
258.662399024541
 30
0.0
 11
-26.04257065714552
 21
256.3957312299213
 31
0.0
  0
LINE
  5
1B2
330
1F
100
AcDbEntity
  8
0
  6
Continuous
 62
     2
100
AcDbLine
 10
-26.5447060772473
 20
258.6622983714567
 30
0.0
 11
-26.74956879702043
 21
258.5970073599379
 31
0.0
  0
LINE
  5
1B3
330
1F
100
AcDbEntity
  8
0
  6
Continuous
 62
     2
100
AcDbLine
 10
-26.35666820291104
 20
258.6474584389621
 30
0.0
 11
-26.5447060772473
 21
258.6622983714567
 31
0.0
  0
LINE
  5
1B4
330
1F
100
AcDbEntity
  8
0
  6
Continuous
 62
     2
100
AcDbLine
 10
-26.24932254148212
 20
258.5931509820211
 30
0.0
 11
-26.35666820291104
 21
258.6474584389621
 31
0.0
  0
LINE
  5
1B5
330
1F
100
AcDbEntity
  8
0
  6
Continuous
 62
     2
100
AcDbLine
 10
-26.16138288000812
 20
258.5056843047442
 30
0.0
 11
-26.24932254148212
 21
258.5931509820211
 31
0.0
  0
LINE
  5
1B6
330
1F
100
AcDbEntity
  8
0
  6
Continuous
 62
     2
100
AcDbLine
 10
-26.07279920939291
 20
258.320010498401
 30
0.0
 11
-26.16138288000812
 21
258.5056843047442
 31
0.0
  0
LINE
  5
1B7
330
1F
100
AcDbEntity
  8
0
  6
Continuous
 62
     2
100
AcDbLine
 10
-26.04257151013772
 20
258.0846127889181
 30
0.0
 11
-26.07279920939291
 21
258.320010498401
 31
0.0
  0
LINE
  5
1B8
330
1F
100
AcDbEntity
  8
0
  6
Continuous
 62
     2
100
AcDbLine
 10
-26.04257065714552
 20
256.3957312299213
 30
0.0
 11
-26.04257151013772
 21
258.0846127889181
 31
0.0
  0
LINE
  5
1B9
330
1F
100
AcDbEntity
  8
0
  6
Continuous
 62
     2
100
AcDbLine
 10
-26.74345412214834
 20
255.9597263789504
 30
0.0
 11
-26.74345369565222
 21
258.0815543852418
 31
0.0
  0
LINE
  5
1BA
330
1F
100
AcDbEntity
  8
0
  6
Continuous
 62
     2
100
AcDbLine
 10
-26.74956879702043
 20
258.5970073599379
 30
0.0
 11
-31.1969210624882
 21
256.373331227204
 31
0.0
  0
LINE
  5
1BB
330
1F
100
AcDbEntity
  8
0
  6
Continuous
 62
     7
100
AcDbLine
 10
-34.17037246943451
 20
255.7574396957419
 30
0.0
 11
-25.19011708179303
 21
260.2475673895627
 31
0.0
  0
LINE
  5
1BC
330
1F
100
AcDbEntity
  8
0
  6
Continuous
 62
     2
100
AcDbLine
 10
-26.74345369565222
 20
258.0815543852418
 30
0.0
 11
-27.07165153870554
 21
258.2331270320922
 31
0.0
  0
LINE
  5
1BD
330
1F
100
AcDbEntity
  8
0
  6
Continuous
 62
     7
100
AcDbLine
 10
-29.29659835459992
 20
257.1388530988724
 30
0.0
 11
-26.74345412214834
 21
255.9597263789504
 31
0.0
  0
LINE
  5
1BE
330
1F
100
AcDbEntity
  8
0
  6
Continuous
 62
     7
100
AcDbLine
 10
-22.36168928300273
 20
259.0637050041829
 30
0.0
 11
-32.6147374146727
 21
264.190229629794
 31
0.0
  0
LINE
  5
1BF
330
1F
100
AcDbEntity
  8
0
  6
Continuous
 62
     2
100
AcDbLine
 10
-27.52598127183003
 20
255.8132444374622
 30
0.0
 11
-27.5051077758541
 21
256.3114833157015
 31
0.0
  0
LINE
  5
1C0
330
1F
100
AcDbEntity
  8
0
  6
Continuous
 62
     2
100
AcDbLine
 10
-33.22653463669511
 20
253.5152114082852
 30
0.0
 11
-33.31791825433791
 21
252.7151524547757
 31
0.0
  0
LINE
  5
1C1
330
1F
100
AcDbEntity
  8
0
  6
Continuous
 62
     2
100
AcDbLine
 10
-32.96024623973852
 20
254.3376906230777
 30
0.0
 11
-33.22653463669511
 21
253.5152114082852
 31
0.0
  0
LINE
  5
1C2
330
1F
100
AcDbEntity
  8
0
  6
Continuous
 62
     2
100
AcDbLine
 10
-32.69636946509232
 20
254.8632545412901
 30
0.0
 11
-32.96024623973852
 21
254.3376906230777
 31
0.0
  0
LINE
  5
1C3
330
1F
100
AcDbEntity
  8
0
  6
Continuous
 62
     2
100
AcDbLine
 10
-32.37525989661822
 20
255.3464637695719
 30
0.0
 11
-32.69636946509232
 21
254.8632545412901
 31
0.0
  0
LINE
  5
1C4
330
1F
100
AcDbEntity
  8
0
  6
Continuous
 62
     2
100
AcDbLine
 10
-31.81273049344722
 20
255.9535528476138
 30
0.0
 11
-32.37525989661822
 21
255.3464637695719
 31
0.0
  0
LINE
  5
1C5
330
1F
100
AcDbEntity
  8
0
  6
Continuous
 62
     2
100
AcDbLine
 10
-31.1969210624882
 20
256.373331227204
 30
0.0
 11
-31.81273049344722
 21
255.9535528476138
 31
0.0
  0
LINE
  5
1C6
330
1F
100
AcDbEntity
  8
0
  6
Continuous
 62
     7
100
AcDbLine
 10
-25.01333963801892
 20
251.0576478383371
 30
0.0
 11
-25.0133393447683
 21
248.2885215032969
 31
0.0
  0
LINE
  5
1C7
330
1F
100
AcDbEntity
  8
0
  6
Continuous
 62
     2
100
AcDbLine
 10
-33.31791782784171
 20
247.8313306708143
 30
0.0
 11
-32.00977020813971
 21
248.4854044806653
 31
0.0
  0
LINE
  5
1C8
330
1F
100
AcDbEntity
  8
0
  6
Continuous
 62
     2
100
AcDbLine
 10
-33.17362487048993
 20
248.6838072454819
 30
0.0
 11
-32.0036538272831
 21
249.2687927670853
 31
0.0
  0
LINE
  5
1C9
330
1F
100
AcDbEntity
  8
0
  6
Continuous
 62
     7
100
AcDbLine
 10
-32.79151435201723
 20
246.4875771291601
 30
0.0
 11
-34.1703725760585
 21
245.7981480171394
 31
0.0
  0
LINE
  5
1CA
330
1F
100
AcDbEntity
  8
0
  6
Continuous
 62
     2
100
AcDbLine
 10
-33.31791825433791
 20
252.7151524547757
 30
0.0
 11
-33.31791782784171
 21
247.8313306708143
 31
0.0
  0
LINE
  5
1CB
330
1F
100
AcDbEntity
  8
0
  6
Continuous
 62
     7
100
AcDbLine
 10
-34.1703725760585
 20
245.7981480171394
 30
0.0
 11
-34.17037246943451
 21
255.7574396957419
 31
0.0
  0
LINE
  5
1CC
330
1F
100
AcDbEntity
  8
0
  6
Continuous
 62
     7
100
AcDbLine
 10
-26.85095118969991
 20
258.3441953873803
 30
0.0
 11
-26.90633832156871
 21
258.3156504285665
 31
0.0
  0
LINE
  5
1CD
330
1F
100
AcDbEntity
  8
0
  6
Continuous
 62
     2
100
AcDbLine
 10
-26.80600638883271
 20
258.3905286463662
 30
0.0
 11
-26.85095118969991
 21
258.3441953873803
 31
0.0
  0
LINE
  5
1CE
330
1F
100
AcDbEntity
  8
0
  6
Continuous
 62
     2
100
AcDbLine
 10
-26.76295011278472
 20
258.4856940051048
 30
0.0
 11
-26.80600638883271
 21
258.3905286463662
 31
0.0
  0
LINE
  5
1CF
330
1F
100
AcDbEntity
  8
0
  6
Continuous
 62
     2
100
AcDbLine
 10
-26.74956879702043
 20
258.5970073599379
 30
0.0
 11
-26.76295011278472
 21
258.4856940051048
 31
0.0
  0
LINE
  5
1D0
330
1F
100
AcDbEntity
  8
0
  6
Continuous
 62
     2
100
AcDbLine
 10
-33.1827260214915
 20
252.8391852033948
 30
0.0
 11
-33.17149062095493
 21
252.8897475979063
 31
0.0
  0
LINE
  5
1D1
330
1F
100
AcDbEntity
  8
0
  6
Continuous
 62
     2
100
AcDbLine
 10
-33.23494983163832
 20
252.7700179818897
 30
0.0
 11
-33.1827260214915
 21
252.8391852033948
 31
0.0
  0
LINE
  5
1D2
330
1F
100
AcDbEntity
  8
0
  6
Continuous
 62
     2
100
AcDbLine
 10
-33.31791825433791
 20
252.7151524547757
 30
0.0
 11
-33.23494983163832
 21
252.7700179818897
 31
0.0
  0
LINE
  5
1D3
330
1F
100
AcDbEntity
  8
0
  6
Continuous
 62
     2
100
AcDbLine
 10
-26.1523023511177
 20
258.0431292173126
 30
0.0
 11
-26.04257151013772
 21
258.0846127889181
 31
0.0
  0
LINE
  5
1D4
330
1F
100
AcDbEntity
  8
0
  6
Continuous
 62
     2
100
AcDbLine
 10
-26.29063636763192
 20
258.017016992367
 30
0.0
 11
-26.1523023511177
 21
258.0431292173126
 31
0.0
  0
LINE
  5
1D5
330
1F
100
AcDbEntity
  8
0
  6
Continuous
 62
     2
100
AcDbLine
 10
-26.39176136990304
 20
258.0113991854747
 30
0.0
 11
-26.29063636763192
 21
258.017016992367
 31
0.0
  0
LINE
  5
1D6
330
1F
100
AcDbEntity
  8
0
  6
Continuous
 62
     2
100
AcDbLine
 10
-26.49306720652893
 20
258.0161337189026
 30
0.0
 11
-26.39176136990304
 21
258.0113991854747
 31
0.0
  0
LINE
  5
1D7
330
1F
100
AcDbEntity
  8
0
  6
Continuous
 62
     2
100
AcDbLine
 10
-26.63229132044552
 20
258.0410342683712
 30
0.0
 11
-26.49306720652893
 21
258.0161337189026
 31
0.0
  0
LINE
  5
1D8
330
1F
100
AcDbEntity
  8
0
  6
Continuous
 62
     2
100
AcDbLine
 10
-26.74345369565222
 20
258.0815543852418
 30
0.0
 11
-26.63229132044552
 21
258.0410342683712
 31
0.0
  0
LINE
  5
1D9
330
1F
100
AcDbEntity
  8
0
  6
Continuous
 62
     2
100
AcDbLine
 10
-31.21030259150052
 20
256.262018298867
 30
0.0
 11
-31.1969210624882
 21
256.373331227204
 31
0.0
  0
LINE
  5
1DA
330
1F
100
AcDbEntity
  8
0
  6
Continuous
 62
     2
100
AcDbLine
 10
-31.25335801455631
 20
256.1668533666245
 30
0.0
 11
-31.21030259150052
 21
256.262018298867
 31
0.0
  0
LINE
  5
1DB
330
1F
100
AcDbEntity
  8
0
  6
Continuous
 62
     2
100
AcDbLine
 10
-31.29830260217543
 20
256.1205196811426
 30
0.0
 11
-31.25335801455631
 21
256.1668533666245
 31
0.0
  0
LINE
  5
1DC
330
1F
100
AcDbEntity
  8
0
  6
Continuous
 62
     2
100
AcDbLine
 10
-26.84423003734523
 20
258.3346235349597
 30
0.0
 11
-26.84916779571253
 21
258.3371208122296
 31
0.0
  0
LINE
  5
1DD
330
1F
100
AcDbEntity
  8
0
  6
Continuous
 62
     2
100
AcDbLine
 10
-26.80043251104073
 20
258.2909703775918
 30
0.0
 11
-26.84423003734523
 21
258.3346235349597
 31
0.0
  0
LINE
  5
1DE
330
1F
100
AcDbEntity
  8
0
  6
Continuous
 62
     2
100
AcDbLine
 10
-26.75702117697281
 20
258.1985371529978
 30
0.0
 11
-26.80043251104073
 21
258.2909703775918
 31
0.0
  0
LINE
  5
1DF
330
1F
100
AcDbEntity
  8
0
  6
Continuous
 62
     2
100
AcDbLine
 10
-26.74345369565222
 20
258.0815543852418
 30
0.0
 11
-26.75702117697281
 21
258.1985371529978
 31
0.0
  0
LINE
  5
1E0
330
1F
100
AcDbEntity
  8
0
  6
Continuous
 62
     7
100
AcDbLine
 10
-33.21304776314113
 20
248.5000931136613
 30
0.0
 11
-33.21315929187651
 21
248.5003348303373
 31
0.0
  0
LINE
  5
1E1
330
1F
100
AcDbEntity
  8
0
  6
Continuous
 62
     7
100
AcDbLine
 10
-33.17353609634631
 20
248.2625363741951
 30
0.0
 11
-33.17381310557622
 21
248.3128491618524
 31
0.0
  0
LINE
  5
1E2
330
1F
100
AcDbEntity
  8
0
  6
Continuous
 62
     7
100
AcDbLine
 10
-33.22074900357953
 20
248.0433473298799
 30
0.0
 11
-33.17353609634631
 21
248.2625363741951
 31
0.0
  0
LINE
  5
1E3
330
1F
100
AcDbEntity
  8
0
  6
Continuous
 62
     7
100
AcDbLine
 10
-33.31791782784171
 20
247.8313306708143
 30
0.0
 11
-33.22074900357953
 21
248.0433473298799
 31
0.0
  0
LINE
  5
1E4
330
1F
100
AcDbEntity
  8
0
  6
Continuous
 62
     7
100
AcDbLine
 10
-31.88036104943211
 20
249.1018862827575
 30
0.0
 11
-31.86332380892742
 21
248.9683678339339
 31
0.0
  0
LINE
  5
1E5
330
1F
100
AcDbEntity
  8
0
  6
Continuous
 62
     7
100
AcDbLine
 10
-31.91017014274561
 20
248.7046258320616
 30
0.0
 11
-32.00977020813971
 21
248.4854044806653
 31
0.0
  0
LINE
  5
1E6
330
1F
100
AcDbEntity
  8
0
  6
Continuous
 62
     7
100
AcDbLine
 10
-31.90138389617803
 20
248.7322171455512
 30
0.0
 11
-31.91017014274561
 21
248.7046258320616
 31
0.0
  0
LINE
  5
1E7
330
1F
100
AcDbEntity
  8
0
  6
Continuous
 62
     7
100
AcDbLine
 10
-31.86522640811862
 20
248.9187277372818
 30
0.0
 11
-31.90138389617803
 21
248.7322171455512
 31
0.0
  0
LINE
  5
1E8
330
1F
100
AcDbEntity
  8
0
  6
Continuous
 62
     7
100
AcDbLine
 10
-31.86332380892742
 20
248.9683678339339
 30
0.0
 11
-31.86522640811862
 21
248.9187277372818
 31
0.0
  0
LINE
  5
1E9
330
1F
100
AcDbEntity
  8
0
  6
Continuous
 62
     7
100
AcDbLine
 10
-31.90138432267412
 20
249.1579037758915
 30
0.0
 11
-31.88036104943211
 21
249.1018862827575
 31
0.0
  0
LINE
  5
1EA
330
1F
100
AcDbEntity
  8
0
  6
Continuous
 62
     7
100
AcDbLine
 10
-31.95374823679643
 20
249.2320102489621
 30
0.0
 11
-31.90138432267412
 21
249.1579037758915
 31
0.0
  0
LINE
  5
1EB
330
1F
100
AcDbEntity
  8
0
  6
Continuous
 62
     7
100
AcDbLine
 10
-32.0036538272831
 20
249.2687927670853
 30
0.0
 11
-31.95374823679643
 21
249.2320102489621
 31
0.0
  0
LINE
  5
1EC
330
1F
100
AcDbEntity
  8
0
  6
Continuous
 62
     7
100
AcDbLine
 10
-26.69280131045943
 20
255.9431335474027
 30
0.0
 11
-26.74345412214834
 21
255.9597263789504
 31
0.0
  0
LINE
  5
1ED
330
1F
100
AcDbEntity
  8
0
  6
Continuous
 62
     7
100
AcDbLine
 10
-26.63791125981854
 20
255.9376125551297
 30
0.0
 11
-26.69280131045943
 21
255.9431335474027
 31
0.0
  0
LINE
  5
1EE
330
1F
100
AcDbEntity
  8
0
  6
Continuous
 62
     7
100
AcDbLine
 10
-26.52325801386982
 20
255.9567485830407
 30
0.0
 11
-26.63791125981854
 21
255.9376125551297
 31
0.0
  0
LINE
  5
1EF
330
1F
100
AcDbEntity
  8
0
  6
Continuous
 62
     7
100
AcDbLine
 10
-26.44631512835332
 20
255.9883950216391
 30
0.0
 11
-26.52325801386982
 21
255.9567485830407
 31
0.0
  0
LINE
  5
1F0
330
1F
100
AcDbEntity
  8
0
  6
Continuous
 62
     7
100
AcDbLine
 10
-26.35073265640932
 20
256.0464147008084
 30
0.0
 11
-26.44631512835332
 21
255.9883950216391
 31
0.0
  0
LINE
  5
1F1
330
1F
100
AcDbEntity
  8
0
  6
Continuous
 62
     7
100
AcDbLine
 10
-26.17967785757062
 20
256.2036830125689
 30
0.0
 11
-26.35073265640932
 21
256.0464147008084
 31
0.0
  0
LINE
  5
1F2
330
1F
100
AcDbEntity
  8
0
  6
Continuous
 62
     7
100
AcDbLine
 10
-26.04257065714552
 20
256.3957312299213
 30
0.0
 11
-26.17967785757062
 21
256.2036830125689
 31
0.0
  0
LINE
  5
1F3
330
1F
100
AcDbEntity
  8
0
  6
Continuous
 62
     7
100
AcDbLine
 10
-26.32148803892582
 20
256.0508083859492
 30
0.0
 11
-26.32148781746261
 21
251.6617936171473
 31
0.0
  0
LINE
  5
1F4
330
1F
100
AcDbEntity
  8
0
  6
Continuous
 62
     7
100
AcDbLine
 10
-33.17300769169142
 20
249.8996859900422
 30
0.0
 11
-32.0036538272831
 21
249.2687927670853
 31
0.0
  0
LINE
  5
1F5
330
1F
100
AcDbEntity
  8
0
  6
Continuous
 62
     7
100
AcDbLine
 10
-35.44316526677503
 20
265.3740921217979
 30
0.0
 11
-25.19011708179303
 21
260.2475673895627
 31
0.0
  0
LINE
  5
1F6
330
1F
100
AcDbEntity
  8
0
  6
Continuous
 62
     7
100
AcDbLine
 10
-31.26623665999321
 20
254.5733282442641
 30
0.0
 11
-30.85164818732861
 21
256.3433616721928
 31
0.0
  0
LINE
  5
1F7
330
1F
100
AcDbEntity
  8
0
  6
Continuous
 62
     7
100
AcDbLine
 10
-33.17266138381993
 20
250.582599198478
 30
0.0
 11
-32.95130388649471
 21
250.890248267162
 31
0.0
  0
LINE
  5
1F8
330
1F
100
AcDbEntity
  8
0
  6
Continuous
 62
     2
100
AcDbLine
 10
-31.86332394729092
 20
246.6794580706367
 30
0.0
 11
-31.57834348861462
 21
246.9559280405537
 31
0.0
  0
LINE
  5
1F9
330
1F
100
AcDbEntity
  8
0
  6
Continuous
 62
     2
100
AcDbLine
 10
-31.38666701818522
 20
246.1751340750917
 30
0.0
 11
-31.08098737203562
 21
246.4554757068976
 31
0.0
  0
LINE
  5
1FA
330
1F
100
AcDbEntity
  8
0
  6
Continuous
 62
     2
100
AcDbLine
 10
-26.82081124293302
 20
255.7670144937102
 30
0.0
 11
-26.82081116164761
 21
255.9954524220942
 31
0.0
  0
LINE
  5
1FB
330
1F
100
AcDbEntity
  8
0
  6
Continuous
 62
     2
100
AcDbLine
 10
-14.82360621478122
 20
243.1698562415606
 30
0.0
 11
-14.9347715754607
 21
243.2103759319351
 31
0.0
  0
LINE
  5
1FC
330
1F
100
AcDbEntity
  8
0
  6
Continuous
 62
     2
100
AcDbLine
 10
-14.68438423334521
 20
243.1449556920919
 30
0.0
 11
-14.82360621478122
 21
243.1698562415606
 31
0.0
  0
LINE
  5
1FD
330
1F
100
AcDbEntity
  8
0
  6
Continuous
 62
     2
100
AcDbLine
 10
-14.58307860996732
 20
243.1402215851602
 30
0.0
 11
-14.68438423334521
 21
243.1449556920919
 31
0.0
  0
LINE
  5
1FE
330
1F
100
AcDbEntity
  8
0
  6
Continuous
 62
     2
100
AcDbLine
 10
-14.48195467393651
 20
243.1458393920525
 30
0.0
 11
-14.58307860996732
 21
243.1402215851602
 31
0.0
  0
LINE
  5
1FF
330
1F
100
AcDbEntity
  8
0
  6
Continuous
 62
     2
100
AcDbLine
 10
-14.34362065742232
 20
243.1719494845175
 30
0.0
 11
-14.48195467393651
 21
243.1458393920525
 31
0.0
  0
LINE
  5
200
330
1F
100
AcDbEntity
  8
0
  6
Continuous
 62
     2
100
AcDbLine
 10
-14.2338874707136
 20
243.2134347621075
 30
0.0
 11
-14.34362065742232
 21
243.1719494845175
 31
0.0
  0
LINE
  5
201
330
1F
100
AcDbEntity
  8
0
  6
Continuous
 62
     2
100
AcDbLine
 10
-14.23388832370591
 20
248.0972563328208
 30
0.0
 11
-15.54203551691182
 21
247.4431827362179
 31
0.0
  0
LINE
  5
202
330
1F
100
AcDbEntity
  8
0
  6
Continuous
 62
     7
100
AcDbLine
 10
-14.76029201277854
 20
249.4410108340913
 30
0.0
 11
-13.38143346886503
 21
250.130440106048
 31
0.0
  0
LINE
  5
203
330
1F
100
AcDbEntity
  8
0
  6
Continuous
 62
     2
100
AcDbLine
 10
-15.00937171779023
 20
242.542878796452
 30
0.0
 11
-14.9347715754607
 21
243.2103759319351
 31
0.0
  0
LINE
  5
204
330
1F
100
AcDbEntity
  8
0
  6
Continuous
 62
     2
100
AcDbLine
 10
-15.23040247897552
 20
241.8570372098565
 30
0.0
 11
-15.00937171779023
 21
242.542878796452
 31
0.0
  0
LINE
  5
205
330
1F
100
AcDbEntity
  8
0
  6
Continuous
 62
     2
100
AcDbLine
 10
-15.45012901502591
 20
241.4189830450291
 30
0.0
 11
-15.23040247897552
 21
241.8570372098565
 31
0.0
  0
LINE
  5
206
330
1F
100
AcDbEntity
  8
0
  6
Continuous
 62
     2
100
AcDbLine
 10
-15.71789095607701
 20
241.0163945915545
 30
0.0
 11
-15.45012901502591
 21
241.4189830450291
 31
0.0
  0
LINE
  5
207
330
1F
100
AcDbEntity
  8
0
  6
Continuous
 62
     2
100
AcDbLine
 10
-16.18754165945671
 20
240.5109275970115
 30
0.0
 11
-15.71789095607701
 21
241.0163945915545
 31
0.0
  0
LINE
  5
208
330
1F
100
AcDbEntity
  8
0
  6
Continuous
 62
     2
100
AcDbLine
 10
-16.70226873775661
 20
240.1618951143145
 30
0.0
 11
-16.18754165945671
 21
240.5109275970115
 31
0.0
  0
LINE
  5
209
330
1F
100
AcDbEntity
  8
0
  6
Continuous
 62
     2
100
AcDbLine
 10
-14.3252710883564
 20
242.413375808598
 30
0.0
 11
-14.2338874707136
 21
243.2134347621075
 31
0.0
  0
LINE
  5
20A
330
1F
100
AcDbEntity
  8
0
  6
Continuous
 62
     2
100
AcDbLine
 10
-14.5915590588169
 20
241.5908968070535
 30
0.0
 11
-14.3252710883564
 21
242.413375808598
 31
0.0
  0
LINE
  5
20B
330
1F
100
AcDbEntity
  8
0
  6
Continuous
 62
     2
100
AcDbLine
 10
-14.85543732619951
 20
241.0653316093528
 30
0.0
 11
-14.5915590588169
 21
241.5908968070535
 31
0.0
  0
LINE
  5
20C
330
1F
100
AcDbEntity
  8
0
  6
Continuous
 62
     2
100
AcDbLine
 10
-15.1765454019372
 20
240.5821225943191
 30
0.0
 11
-14.85543732619951
 21
241.0653316093528
 31
0.0
  0
LINE
  5
20D
330
1F
100
AcDbEntity
  8
0
  6
Continuous
 62
     2
100
AcDbLine
 10
-15.7390750183562
 20
239.9750339427733
 30
0.0
 11
-15.1765454019372
 21
240.5821225943191
 31
0.0
  0
LINE
  5
20E
330
1F
100
AcDbEntity
  8
0
  6
Continuous
 62
     2
100
AcDbLine
 10
-16.35488508905942
 20
239.5552568426714
 30
0.0
 11
-15.7390750183562
 21
239.9750339427733
 31
0.0
  0
LINE
  5
20F
330
1F
100
AcDbEntity
  8
0
  6
Continuous
 62
     2
100
AcDbLine
 10
-14.9347715754607
 20
243.2103759319351
 30
0.0
 11
-14.9347715754607
 21
247.5413501034823
 31
0.0
  0
LINE
  5
210
330
1F
100
AcDbEntity
  8
0
  6
Continuous
 62
     2
100
AcDbLine
 10
-14.2338874707136
 20
243.2134347621075
 30
0.0
 11
-14.23388832370591
 21
248.0972563328208
 31
0.0
  0
LINE
  5
211
330
1F
100
AcDbEntity
  8
0
  6
Continuous
 62
     7
100
AcDbLine
 10
-14.76029201277854
 20
255.5031882987794
 30
0.0
 11
-14.76029201277854
 21
249.4410108340913
 31
0.0
  0
LINE
  5
212
330
1F
100
AcDbEntity
  8
0
  6
Continuous
 62
     2
100
AcDbLine
 10
-15.54203551691182
 20
247.4431827362179
 30
0.0
 11
-15.54203509041574
 21
256.7192720395273
 31
0.0
  0
LINE
  5
213
330
1F
100
AcDbEntity
  8
0
  6
Continuous
 62
     7
100
AcDbLine
 10
-13.38143346886503
 20
250.130440106048
 30
0.0
 11
-13.38143346886511
 21
240.1711458151568
 31
0.0
  0
LINE
  5
214
330
1F
100
AcDbEntity
  8
0
  6
Continuous
 62
     2
100
AcDbLine
 10
-16.24291706268213
 20
247.0071783117431
 30
0.0
 11
-16.2429183421705
 21
257.1491605096416
 31
0.0
  0
LINE
  5
215
330
1F
100
AcDbEntity
  8
0
  6
Continuous
 62
     7
100
AcDbLine
 10
-16.02499972317261
 20
247.0034780314062
 30
0.0
 11
-15.94362426348121
 21
247.0369238571347
 31
0.0
  0
LINE
  5
216
330
1F
100
AcDbEntity
  8
0
  6
Continuous
 62
     7
100
AcDbLine
 10
-15.68428050284624
 20
247.2452842715878
 30
0.0
 11
-15.54203551691182
 21
247.4431827362179
 31
0.0
  0
LINE
  5
217
330
1F
100
AcDbEntity
  8
0
  6
Continuous
 62
     7
100
AcDbLine
 10
-15.70424563921452
 20
247.2232830427427
 30
0.0
 11
-15.68428050284624
 21
247.2452842715878
 31
0.0
  0
LINE
  5
218
330
1F
100
AcDbEntity
  8
0
  6
Continuous
 62
     7
100
AcDbLine
 10
-15.85201119092594
 20
247.0925739238614
 30
0.0
 11
-15.70424563921452
 21
247.2232830427427
 31
0.0
  0
LINE
  5
219
330
1F
100
AcDbEntity
  8
0
  6
Continuous
 62
     7
100
AcDbLine
 10
-15.89558885848064
 20
247.0637734938717
 30
0.0
 11
-15.85201119092594
 21
247.0925739238614
 31
0.0
  0
LINE
  5
21A
330
1F
100
AcDbEntity
  8
0
  6
Continuous
 62
     7
100
AcDbLine
 10
-15.94362426348121
 20
247.0369238571347
 30
0.0
 11
-15.89558885848064
 21
247.0637734938717
 31
0.0
  0
LINE
  5
21B
330
1F
100
AcDbEntity
  8
0
  6
Continuous
 62
     7
100
AcDbLine
 10
-16.08693122475432
 20
246.9889387786762
 30
0.0
 11
-16.02499972317261
 21
247.0034780314062
 31
0.0
  0
LINE
  5
21C
330
1F
100
AcDbEntity
  8
0
  6
Continuous
 62
     7
100
AcDbLine
 10
-16.18237849742832
 20
246.9887374725076
 30
0.0
 11
-16.08693122475432
 21
246.9889387786762
 31
0.0
  0
LINE
  5
21D
330
1F
100
AcDbEntity
  8
0
  6
Continuous
 62
     7
100
AcDbLine
 10
-16.24291706268213
 20
247.0071783117431
 30
0.0
 11
-16.18237849742832
 21
246.9887374725076
 31
0.0
  0
LINE
  5
21E
330
1F
100
AcDbEntity
  8
0
  6
Continuous
 62
     7
100
AcDbLine
 10
-14.5420496832256
 20
247.7479406567002
 30
0.0
 11
-14.63763002268891
 21
247.6899209775309
 31
0.0
  0
LINE
  5
21F
330
1F
100
AcDbEntity
  8
0
  6
Continuous
 62
     7
100
AcDbLine
 10
-14.3709957373791
 20
247.9052085419646
 30
0.0
 11
-14.5420496832256
 21
247.7479406567002
 31
0.0
  0
LINE
  5
220
330
1F
100
AcDbEntity
  8
0
  6
Continuous
 62
     7
100
AcDbLine
 10
-14.23388832370591
 20
248.0972563328208
 30
0.0
 11
-14.3709957373791
 21
247.9052085419646
 31
0.0
  0
LINE
  5
221
330
1F
100
AcDbEntity
  8
0
  6
Continuous
 62
     7
100
AcDbLine
 10
-26.47436023371452
 20
245.4260603803728
 30
0.0
 11
-26.78083693356032
 21
245.2400372737074
 31
0.0
  0
LINE
  5
222
330
1F
100
AcDbEntity
  8
0
  6
Continuous
 62
     7
100
AcDbLine
 10
-25.89735875095252
 20
245.9715570212484
 30
0.0
 11
-26.47436023371452
 21
245.4260603803728
 31
0.0
  0
LINE
  5
223
330
1F
100
AcDbEntity
  8
0
  6
Continuous
 62
     7
100
AcDbLine
 10
-25.42698129818442
 20
246.6899658515653
 30
0.0
 11
-25.89735875095252
 21
245.9715570212484
 31
0.0
  0
LINE
  5
224
330
1F
100
AcDbEntity
  8
0
  6
Continuous
 62
     7
100
AcDbLine
 10
-25.11996465425071
 20
247.4946399195891
 30
0.0
 11
-25.42698129818442
 21
246.6899658515653
 31
0.0
  0
LINE
  5
225
330
1F
100
AcDbEntity
  8
0
  6
Continuous
 62
     7
100
AcDbLine
 10
-25.0133393447683
 20
248.2885215032969
 30
0.0
 11
-25.11996465425071
 21
247.4946399195891
 31
0.0
  0
LINE
  5
226
330
1F
100
AcDbEntity
  8
0
  6
Continuous
 62
     2
100
AcDbLine
 10
-14.9347715754607
 20
243.2103759319351
 30
0.0
 11
-25.0133393447683
 21
248.2885215032969
 31
0.0
  0
LINE
  5
227
330
1F
100
AcDbEntity
  8
0
  6
Continuous
 62
     7
100
AcDbLine
 10
-26.32148781746261
 20
251.6617936171473
 30
0.0
 11
-16.24291706268213
 21
247.0071783117431
 31
0.0
  0
LINE
  5
228
330
1F
100
AcDbEntity
  8
0
  6
Continuous
 62
     2
100
AcDbLine
 10
-32.00977063463583
 20
239.2093151773559
 30
0.0
 11
-33.31791814771381
 21
238.5552414208169
 31
0.0
  0
LINE
  5
229
330
1F
100
AcDbEntity
  8
0
  6
Continuous
 62
     7
100
AcDbLine
 10
-32.79151451195321
 20
240.4253995845039
 30
0.0
 11
-32.79151435201723
 21
246.4875771291601
 31
0.0
  0
LINE
  5
22A
330
1F
100
AcDbEntity
  8
0
  6
Continuous
 62
     7
100
AcDbLine
 10
-26.78083693356032
 20
245.2400372737074
 30
0.0
 11
-28.27176518441783
 21
244.4945731482787
 31
0.0
  0
LINE
  5
22B
330
1F
100
AcDbEntity
  8
0
  6
Continuous
 62
     2
100
AcDbLine
 10
-32.00977020813971
 20
248.4854044806653
 30
0.0
 11
-32.00977063463583
 21
239.2093151773559
 31
0.0
  0
LINE
  5
22C
330
1F
100
AcDbEntity
  8
0
  6
Continuous
 62
     7
100
AcDbLine
 10
-31.86807454920782
 20
239.0746987142714
 30
0.0
 11
-31.86332439535963
 21
239.0799057254322
 31
0.0
  0
LINE
  5
22D
330
1F
100
AcDbEntity
  8
0
  6
Continuous
 62
     7
100
AcDbLine
 10
-31.91017056924173
 20
239.1323392383901
 30
0.0
 11
-32.00977063463583
 21
239.2093151773559
 31
0.0
  0
LINE
  5
22E
330
1F
100
AcDbEntity
  8
0
  6
Continuous
 62
     7
100
AcDbLine
 10
-31.9013838428659
 20
239.124713940917
 30
0.0
 11
-31.91017056924173
 21
239.1323392383901
 31
0.0
  0
LINE
  5
22F
330
1F
100
AcDbEntity
  8
0
  6
Continuous
 62
     7
100
AcDbLine
 10
-31.86332439535963
 20
239.0799057254322
 30
0.0
 11
-31.9013838428659
 21
239.124713940917
 31
0.0
  0
LINE
  5
230
330
1F
100
AcDbEntity
  8
0
  6
Continuous
 62
     7
100
AcDbLine
 10
-22.44304048379914
 20
237.374439473493
 30
0.0
 11
-22.43074113730742
 21
237.3682184326279
 31
0.0
  0
LINE
  5
231
330
1F
100
AcDbEntity
  8
0
  6
Continuous
 62
     7
100
AcDbLine
 10
-22.54733494060201
 20
241.399068235203
 30
0.0
 11
-22.59013553222601
 21
241.4292035980482
 31
0.0
  0
LINE
  5
232
330
1F
100
AcDbEntity
  8
0
  6
Continuous
 62
     7
100
AcDbLine
 10
-22.51215498164962
 20
241.3595546491756
 30
0.0
 11
-22.54733494060201
 21
241.399068235203
 31
0.0
  0
LINE
  5
233
330
1F
100
AcDbEntity
  8
0
  6
Continuous
 62
     7
100
AcDbLine
 10
-22.46623926236532
 20
241.2601337121518
 30
0.0
 11
-22.51215498164962
 21
241.3595546491756
 31
0.0
  0
LINE
  5
234
330
1F
100
AcDbEntity
  8
0
  6
Continuous
 62
     7
100
AcDbLine
 10
-22.45246173170551
 20
241.1844016491199
 30
0.0
 11
-22.46623926236532
 21
241.2601337121518
 31
0.0
  0
LINE
  5
235
330
1F
100
AcDbEntity
  8
0
  6
Continuous
 62
     7
100
AcDbLine
 10
-22.4521478305613
 20
241.1273334827943
 30
0.0
 11
-22.45246173170551
 21
241.1844016491199
 31
0.0
  0
LINE
  5
236
330
1F
100
AcDbEntity
  8
0
  6
Continuous
 62
     7
100
AcDbLine
 10
-22.45187060808334
 20
241.0770197355207
 30
0.0
 11
-22.4521478305613
 21
241.1273334827943
 31
0.0
  0
LINE
  5
237
330
1F
100
AcDbEntity
  8
0
  6
Continuous
 62
     7
100
AcDbLine
 10
-22.49908458155682
 20
240.8578322905659
 30
0.0
 11
-22.45187060808334
 21
241.0770197355207
 31
0.0
  0
LINE
  5
238
330
1F
100
AcDbEntity
  8
0
  6
Continuous
 62
     7
100
AcDbLine
 10
-22.59625233957871
 20
240.6458150983802
 30
0.0
 11
-22.49908458155682
 21
240.8578322905659
 31
0.0
  0
LINE
  5
239
330
1F
100
AcDbEntity
  8
0
  6
Continuous
 62
     2
100
AcDbLine
 10
-22.09411798571722
 20
236.72277967647
 30
0.0
 11
-21.889254839448
 21
236.7880719674771
 31
0.0
  0
LINE
  5
23A
330
1F
100
AcDbEntity
  8
0
  6
Continuous
 62
     2
100
AcDbLine
 10
-22.28215500706122
 20
236.7376200354607
 30
0.0
 11
-22.09411798571722
 21
236.72277967647
 31
0.0
  0
LINE
  5
23B
330
1F
100
AcDbEntity
  8
0
  6
Continuous
 62
     2
100
AcDbLine
 10
-22.38950066849023
 20
236.7919274924017
 30
0.0
 11
-22.28215500706122
 21
236.7376200354607
 31
0.0
  0
LINE
  5
23C
330
1F
100
AcDbEntity
  8
0
  6
Continuous
 62
     2
100
AcDbLine
 10
-22.47744160945251
 20
236.8793945961747
 30
0.0
 11
-22.38950066849023
 21
236.7919274924017
 31
0.0
  0
LINE
  5
23D
330
1F
100
AcDbEntity
  8
0
  6
Continuous
 62
     2
100
AcDbLine
 10
-22.56602485357163
 20
237.0650675495257
 30
0.0
 11
-22.47744160945251
 21
236.8793945961747
 31
0.0
  0
LINE
  5
23E
330
1F
100
AcDbEntity
  8
0
  6
Continuous
 62
     2
100
AcDbLine
 10
-22.59625233957871
 20
237.300466964993
 30
0.0
 11
-22.56602485357163
 21
237.0650675495257
 31
0.0
  0
LINE
  5
23F
330
1F
100
AcDbEntity
  8
0
  6
Continuous
 62
     7
100
AcDbLine
 10
-24.48300933241521
 20
238.9504855577935
 30
0.0
 11
-23.06879553964413
 21
239.657592454179
 31
0.0
  0
LINE
  5
240
330
1F
100
AcDbEntity
  8
0
  6
Continuous
 62
     2
100
AcDbLine
 10
-22.59625233957871
 20
240.6458150983802
 30
0.0
 11
-24.95555295897663
 21
239.4661647886812
 31
0.0
  0
LINE
  5
241
330
1F
100
AcDbEntity
  8
0
  6
Continuous
 62
     2
100
AcDbLine
 10
-22.59625233957871
 20
237.300466964993
 30
0.0
 11
-22.59625233957871
 21
240.6458150983802
 31
0.0
  0
LINE
  5
242
330
1F
100
AcDbEntity
  8
0
  6
Continuous
 62
     2
100
AcDbLine
 10
-22.59013553222601
 20
241.4292035980482
 30
0.0
 11
-25.6564357842353
 21
239.8960534720436
 31
0.0
  0
LINE
  5
243
330
1F
100
AcDbEntity
  8
0
  6
Continuous
 62
     7
100
AcDbLine
 10
-23.06879553964413
 20
235.3274647797673
 30
0.0
 11
-23.06879553964413
 21
239.657592454179
 31
0.0
  0
LINE
  5
244
330
1F
100
AcDbEntity
  8
0
  6
Continuous
 62
     2
100
AcDbLine
 10
-22.23663678216073
 20
237.3947110921125
 30
0.0
 11
-16.70226873775661
 21
240.1618951143145
 31
0.0
  0
LINE
  5
245
330
1F
100
AcDbEntity
  8
0
  6
Continuous
 62
     2
100
AcDbLine
 10
-21.889254839448
 20
236.7880719674771
 30
0.0
 11
-16.35488508905942
 21
239.5552568426714
 31
0.0
  0
LINE
  5
246
330
1F
100
AcDbEntity
  8
0
  6
Continuous
 62
     7
100
AcDbLine
 10
-23.06879553964413
 20
235.3274647797673
 30
0.0
 11
-13.38143346886511
 21
240.1711458151568
 31
0.0
  0
LINE
  5
247
330
1F
100
AcDbEntity
  8
0
  6
Continuous
 62
     2
100
AcDbLine
 10
-25.67004996688112
 20
235.9839408290141
 30
0.0
 11
-25.65643621073141
 21
236.1177582516177
 31
0.0
  0
LINE
  5
248
330
1F
100
AcDbEntity
  8
0
  6
Continuous
 62
     2
100
AcDbLine
 10
-25.71361100108712
 20
235.8461277775104
 30
0.0
 11
-25.67004996688112
 21
235.9839408290141
 31
0.0
  0
LINE
  5
249
330
1F
100
AcDbEntity
  8
0
  6
Continuous
 62
     2
100
AcDbLine
 10
-25.75752389459203
 20
235.7582670178186
 30
0.0
 11
-25.71361100108712
 21
235.8461277775104
 31
0.0
  0
LINE
  5
24A
330
1F
100
AcDbEntity
  8
0
  6
Continuous
 62
     2
100
AcDbLine
 10
-25.81135410237482
 20
235.677673112267
 30
0.0
 11
-25.75752389459203
 21
235.7582670178186
 31
0.0
  0
LINE
  5
24B
330
1F
100
AcDbEntity
  8
0
  6
Continuous
 62
     2
100
AcDbLine
 10
-25.9061202607451
 20
235.5769268385505
 30
0.0
 11
-25.81135410237482
 21
235.677673112267
 31
0.0
  0
LINE
  5
24C
330
1F
100
AcDbEntity
  8
0
  6
Continuous
 62
     2
100
AcDbLine
 10
-26.00993538729301
 20
235.5080617895463
 30
0.0
 11
-25.9061202607451
 21
235.5769268385505
 31
0.0
  0
LINE
  5
24D
330
1F
100
AcDbEntity
  8
0
  6
Continuous
 62
     7
100
AcDbLine
 10
-25.09266037264982
 20
239.5610443950195
 30
0.0
 11
-24.95555295897663
 21
239.4661647886812
 31
0.0
  0
LINE
  5
24E
330
1F
100
AcDbEntity
  8
0
  6
Continuous
 62
     7
100
AcDbLine
 10
-25.26371431849631
 20
239.6710978803142
 30
0.0
 11
-25.09266037264982
 21
239.5610443950195
 31
0.0
  0
LINE
  5
24F
330
1F
100
AcDbEntity
  8
0
  6
Continuous
 62
     7
100
AcDbLine
 10
-25.36057244033512
 20
239.7303462948051
 30
0.0
 11
-25.26371431849631
 21
239.6710978803142
 31
0.0
  0
LINE
  5
250
330
1F
100
AcDbEntity
  8
0
  6
Continuous
 62
     7
100
AcDbLine
 10
-25.4362401024529
 20
239.775133292108
 30
0.0
 11
-25.36057244033512
 21
239.7303462948051
 31
0.0
  0
LINE
  5
251
330
1F
100
AcDbEntity
  8
0
  6
Continuous
 62
     7
100
AcDbLine
 10
-25.55089377489773
 20
239.8401852525515
 30
0.0
 11
-25.4362401024529
 21
239.775133292108
 31
0.0
  0
LINE
  5
252
330
1F
100
AcDbEntity
  8
0
  6
Continuous
 62
     7
100
AcDbLine
 10
-25.60578339904251
 20
239.8698440059827
 30
0.0
 11
-25.55089377489773
 21
239.8401852525515
 31
0.0
  0
LINE
  5
253
330
1F
100
AcDbEntity
  8
0
  6
Continuous
 62
     7
100
AcDbLine
 10
-25.6564357842353
 20
239.8960534720436
 30
0.0
 11
-25.60578339904251
 21
239.8698440059827
 31
0.0
  0
LINE
  5
254
330
1F
100
AcDbEntity
  8
0
  6
Continuous
 62
     2
100
AcDbLine
 10
-24.98587896558752
 20
235.8547459846067
 30
0.0
 11
-24.95555338547283
 21
236.1208121770848
 31
0.0
  0
LINE
  5
255
330
1F
100
AcDbEntity
  8
0
  6
Continuous
 62
     2
100
AcDbLine
 10
-25.07476075699051
 20
235.5800078465212
 30
0.0
 11
-24.98587896558752
 21
235.8547459846067
 31
0.0
  0
LINE
  5
256
330
1F
100
AcDbEntity
  8
0
  6
Continuous
 62
     2
100
AcDbLine
 10
-25.16292603491203
 20
235.4044513811361
 30
0.0
 11
-25.07476075699051
 21
235.5800078465212
 31
0.0
  0
LINE
  5
257
330
1F
100
AcDbEntity
  8
0
  6
Continuous
 62
     2
100
AcDbLine
 10
-25.27024354759712
 20
235.243089559616
 30
0.0
 11
-25.16292603491203
 21
235.4044513811361
 31
0.0
  0
LINE
  5
258
330
1F
100
AcDbEntity
  8
0
  6
Continuous
 62
     2
100
AcDbLine
 10
-25.45801017040103
 20
235.0407141652145
 30
0.0
 11
-25.27024354759712
 21
235.243089559616
 31
0.0
  0
LINE
  5
259
330
1F
100
AcDbEntity
  8
0
  6
Continuous
 62
     2
100
AcDbLine
 10
-25.66255216509191
 20
234.9014233046552
 30
0.0
 11
-25.45801017040103
 21
235.0407141652145
 31
0.0
  0
LINE
  5
25A
330
1F
100
AcDbEntity
  8
0
  6
Continuous
 62
     2
100
AcDbLine
 10
-24.95555295897663
 20
239.4661647886812
 30
0.0
 11
-24.95555338547283
 21
236.1208121770848
 31
0.0
  0
LINE
  5
25B
330
1F
100
AcDbEntity
  8
0
  6
Continuous
 62
     2
100
AcDbLine
 10
-25.6564357842353
 20
239.8960534720436
 30
0.0
 11
-25.65643621073141
 21
236.1177582516177
 31
0.0
  0
LINE
  5
25C
330
1F
100
AcDbEntity
  8
0
  6
Continuous
 62
     7
100
AcDbLine
 10
-24.48300933241521
 20
234.6203578833817
 30
0.0
 11
-24.48300933241521
 21
238.9504855577935
 31
0.0
  0
LINE
  5
25D
330
1F
100
AcDbEntity
  8
0
  6
Continuous
 62
     2
100
AcDbLine
 10
-31.54430417806523
 20
232.7408773941602
 30
0.0
 11
-26.00993538729301
 21
235.5080617895463
 31
0.0
  0
LINE
  5
25E
330
1F
100
AcDbEntity
  8
0
  6
Continuous
 62
     2
100
AcDbLine
 10
-31.19692084924012
 20
232.134238962581
 30
0.0
 11
-25.66255216509191
 21
234.9014233046552
 31
0.0
  0
LINE
  5
25F
330
1F
100
AcDbEntity
  8
0
  6
Continuous
 62
     7
100
AcDbLine
 10
-23.06879553964413
 20
235.3274647797673
 30
0.0
 11
-24.4830093530833
 21
236.034571798626
 31
0.0
  0
LINE
  5
260
330
1F
100
AcDbEntity
  8
0
  6
Continuous
 62
     2
100
AcDbLine
 10
-22.14053441144651
 20
237.3282118170858
 30
0.0
 11
-22.23663678216073
 21
237.3947110921125
 31
0.0
  0
LINE
  5
261
330
1F
100
AcDbEntity
  8
0
  6
Continuous
 62
     2
100
AcDbLine
 10
-22.04602372425202
 20
237.226195651172
 30
0.0
 11
-22.14053441144651
 21
237.3282118170858
 31
0.0
  0
LINE
  5
262
330
1F
100
AcDbEntity
  8
0
  6
Continuous
 62
     2
100
AcDbLine
 10
-21.99063637913523
 20
237.1422646267297
 30
0.0
 11
-22.04602372425202
 21
237.226195651172
 31
0.0
  0
LINE
  5
263
330
1F
100
AcDbEntity
  8
0
  6
Continuous
 62
     2
100
AcDbLine
 10
-21.94569136501994
 20
237.0509863536286
 30
0.0
 11
-21.99063637913523
 21
237.1422646267297
 31
0.0
  0
LINE
  5
264
330
1F
100
AcDbEntity
  8
0
  6
Continuous
 62
     2
100
AcDbLine
 10
-21.90263572871612
 20
236.9127657850823
 30
0.0
 11
-21.94569136501994
 21
237.0509863536286
 31
0.0
  0
LINE
  5
265
330
1F
100
AcDbEntity
  8
0
  6
Continuous
 62
     2
100
AcDbLine
 10
-21.889254839448
 20
236.7880719674771
 30
0.0
 11
-21.90263572871612
 21
236.9127657850823
 31
0.0
  0
LINE
  5
266
330
1F
100
AcDbEntity
  8
0
  6
Continuous
 62
     2
100
AcDbLine
 10
-25.54527298253251
 20
236.0772353625224
 30
0.0
 11
-25.65643621073141
 21
236.1177582516177
 31
0.0
  0
LINE
  5
267
330
1F
100
AcDbEntity
  8
0
  6
Continuous
 62
     2
100
AcDbLine
 10
-25.40604929511201
 20
236.0523356660459
 30
0.0
 11
-25.54527298253251
 21
236.0772353625224
 31
0.0
  0
LINE
  5
268
330
1F
100
AcDbEntity
  8
0
  6
Continuous
 62
     2
100
AcDbLine
 10
-25.30474409823032
 20
236.0476013458662
 30
0.0
 11
-25.40604929511201
 21
236.0523356660459
 31
0.0
  0
LINE
  5
269
330
1F
100
AcDbEntity
  8
0
  6
Continuous
 62
     2
100
AcDbLine
 10
-25.2036193092072
 20
236.053217446774
 30
0.0
 11
-25.30474409823032
 21
236.0476013458662
 31
0.0
  0
LINE
  5
26A
330
1F
100
AcDbEntity
  8
0
  6
Continuous
 62
     2
100
AcDbLine
 10
-25.06528529269301
 20
236.0793296717195
 30
0.0
 11
-25.2036193092072
 21
236.053217446774
 31
0.0
  0
LINE
  5
26B
330
1F
100
AcDbEntity
  8
0
  6
Continuous
 62
     2
100
AcDbLine
 10
-24.95555338547283
 20
236.1208121770848
 30
0.0
 11
-25.06528529269301
 21
236.0793296717195
 31
0.0
  0
LINE
  5
26C
330
1F
100
AcDbEntity
  8
0
  6
Continuous
 62
     2
100
AcDbLine
 10
-22.51328434337532
 20
237.355332278859
 30
0.0
 11
-22.59625233957871
 21
237.300466964993
 31
0.0
  0
LINE
  5
26D
330
1F
100
AcDbEntity
  8
0
  6
Continuous
 62
     2
100
AcDbLine
 10
-22.46106074647653
 20
237.42449886062
 30
0.0
 11
-22.51328434337532
 21
237.355332278859
 31
0.0
  0
LINE
  5
26E
330
1F
100
AcDbEntity
  8
0
  6
Continuous
 62
     2
100
AcDbLine
 10
-22.44982513269193
 20
237.4750608286354
 30
0.0
 11
-22.46106074647653
 21
237.42449886062
 31
0.0
  0
LINE
  5
26F
330
1F
100
AcDbEntity
  8
0
  6
Continuous
 62
     2
100
AcDbLine
 10
-16.3682668313198
 20
239.6799502337804
 30
0.0
 11
-16.35488508905942
 21
239.5552568426714
 31
0.0
  0
LINE
  5
270
330
1F
100
AcDbEntity
  8
0
  6
Continuous
 62
     2
100
AcDbLine
 10
-16.41132246762362
 20
239.8181708023267
 30
0.0
 11
-16.3682668313198
 21
239.6799502337804
 31
0.0
  0
LINE
  5
271
330
1F
100
AcDbEntity
  8
0
  6
Continuous
 62
     2
100
AcDbLine
 10
-16.4562666287467
 20
239.909449501924
 30
0.0
 11
-16.41132246762362
 21
239.8181708023267
 31
0.0
  0
LINE
  5
272
330
1F
100
AcDbEntity
  8
0
  6
Continuous
 62
     2
100
AcDbLine
 10
-16.5116539738635
 20
239.9933805263663
 30
0.0
 11
-16.4562666287467
 21
239.909449501924
 31
0.0
  0
LINE
  5
273
330
1F
100
AcDbEntity
  8
0
  6
Continuous
 62
     2
100
AcDbLine
 10
-16.60616636704242
 20
240.0953958392879
 30
0.0
 11
-16.5116539738635
 21
239.9933805263663
 31
0.0
  0
LINE
  5
274
330
1F
100
AcDbEntity
  8
0
  6
Continuous
 62
     2
100
AcDbLine
 10
-16.70226873775661
 20
240.1618951143145
 30
0.0
 11
-16.60616636704242
 21
240.0953958392879
 31
0.0
  0
LINE
  5
275
330
1F
100
AcDbEntity
  8
0
  6
Continuous
 62
     2
100
AcDbLine
 10
-25.67593348085623
 20
235.0261169090123
 30
0.0
 11
-25.66255216509191
 21
234.9014233046552
 31
0.0
  0
LINE
  5
276
330
1F
100
AcDbEntity
  8
0
  6
Continuous
 62
     2
100
AcDbLine
 10
-25.71898911716002
 20
235.1643374775586
 30
0.0
 11
-25.67593348085623
 21
235.0261169090123
 31
0.0
  0
LINE
  5
277
330
1F
100
AcDbEntity
  8
0
  6
Continuous
 62
     2
100
AcDbLine
 10
-25.76393370477922
 20
235.2556159639078
 30
0.0
 11
-25.71898911716002
 21
235.1643374775586
 31
0.0
  0
LINE
  5
278
330
1F
100
AcDbEntity
  8
0
  6
Continuous
 62
     2
100
AcDbLine
 10
-25.81932062339982
 20
235.3395472015981
 30
0.0
 11
-25.76393370477922
 21
235.2556159639078
 31
0.0
  0
LINE
  5
279
330
1F
100
AcDbEntity
  8
0
  6
Continuous
 62
     2
100
AcDbLine
 10
-25.91383344307494
 20
235.4415623012716
 30
0.0
 11
-25.81932062339982
 21
235.3395472015981
 31
0.0
  0
LINE
  5
27A
330
1F
100
AcDbEntity
  8
0
  6
Continuous
 62
     2
100
AcDbLine
 10
-26.00993538729301
 20
235.5080617895463
 30
0.0
 11
-25.91383344307494
 21
235.4415623012716
 31
0.0
  0
LINE
  5
27B
330
1F
100
AcDbEntity
  8
0
  6
Continuous
 62
     2
100
AcDbLine
 10
-22.33757305989872
 20
237.3612558834693
 30
0.0
 11
-22.23663678216073
 21
237.3947110921125
 31
0.0
  0
LINE
  5
27C
330
1F
100
AcDbEntity
  8
0
  6
Continuous
 62
     2
100
AcDbLine
 10
-22.43074113730742
 20
237.3682184326279
 30
0.0
 11
-22.33757305989872
 21
237.3612558834693
 31
0.0
  0
LINE
  5
27D
330
1F
100
AcDbEntity
  8
0
  6
Continuous
 62
     7
100
AcDbLine
 10
-24.48300933241521
 20
234.6203578833817
 30
0.0
 11
-34.17037225618651
 21
229.7766764214961
 31
0.0
  0
LINE
  5
27E
330
1F
100
AcDbEntity
  8
0
  6
Continuous
 62
     2
100
AcDbLine
 10
-22.44983294360412
 20
237.5097352839232
 30
0.0
 11
-22.23663678216073
 21
237.3947110921125
 31
0.0
  0
LINE
  5
27F
330
1F
100
AcDbEntity
  8
0
  6
Continuous
 62
     2
100
AcDbLine
 10
-25.65643621073141
 20
236.1177582516177
 30
0.0
 11
-31.86332421445783
 21
239.2451327338439
 31
0.0
  0
LINE
  5
280
330
1F
100
AcDbEntity
  8
0
  6
Continuous
 62
     2
100
AcDbLine
 10
-26.00993538729301
 20
235.5080617895463
 30
0.0
 11
-32.48069437267404
 21
238.7683885599138
 31
0.0
  0
LINE
  5
281
330
1F
100
AcDbEntity
  8
0
  6
Continuous
 62
     2
100
AcDbLine
 10
-16.70226873775661
 20
240.1618951143145
 30
0.0
 11
-26.78083693356032
 21
245.2400372737074
 31
0.0
  0
LINE
  5
282
330
1F
100
AcDbEntity
  8
0
  6
Continuous
 62
     7
100
AcDbLine
 10
-31.86332385617951
 20
246.4323013803983
 30
0.0
 11
-22.59013553222601
 21
241.4292035980482
 31
0.0
  0
LINE
  5
283
330
1F
100
AcDbEntity
  8
0
  6
Continuous
 62
     7
100
AcDbLine
 10
-25.6564357842353
 20
239.8960534720436
 30
0.0
 11
-31.86332401042202
 21
243.0234291951321
 31
0.0
  0
LINE
  5
284
330
1F
100
AcDbEntity
  8
0
  6
Continuous
 62
     7
100
AcDbLine
 10
-44.4234210809127
 20
250.9246720563184
 30
0.0
 11
-44.42342086766465
 21
244.8624941651342
 31
0.0
  0
LINE
  5
285
330
1F
100
AcDbEntity
  8
0
  6
Continuous
 62
     7
100
AcDbLine
 10
-43.04456275024731
 20
245.5519232238428
 30
0.0
 11
-43.04456275024731
 21
250.2352428575726
 31
0.0
  0
LINE
  5
286
330
1F
100
AcDbEntity
  8
0
  6
Continuous
 62
     7
100
AcDbLine
 10
-44.42342086766465
 20
244.8624941651342
 30
0.0
 11
-43.04456275024731
 21
245.5519232238428
 31
0.0
  0
LINE
  5
287
330
1F
100
AcDbEntity
  8
0
  6
Continuous
 62
     7
100
AcDbLine
 10
-34.1703725760585
 20
245.7981480171394
 30
0.0
 11
-44.4234210809127
 21
250.9246720563184
 31
0.0
  0
LINE
  5
288
330
1F
100
AcDbEntity
  8
0
  6
Continuous
 62
     7
100
AcDbLine
 10
-48.66606181948185
 20
238.7565729126526
 30
0.0
 11
-48.66606139298574
 21
237.0245222693841
 31
0.0
  0
LINE
  5
289
330
1F
100
AcDbEntity
  8
0
  6
Continuous
 62
     7
100
AcDbLine
 10
-47.25184802671075
 20
237.7316289525216
 30
0.0
 11
-47.25184810497416
 21
238.0494658063872
 31
0.0
  0
LINE
  5
28A
330
1F
100
AcDbEntity
  8
0
  6
Continuous
 62
     7
100
AcDbLine
 10
-51.49448855203184
 20
244.1112026972152
 30
0.0
 11
-51.49448897852795
 21
241.4265234964303
 31
0.0
  0
LINE
  5
28B
330
1F
100
AcDbEntity
  8
0
  6
Continuous
 62
     7
100
AcDbLine
 10
-46.19118842850062
 20
237.5191357906659
 30
0.0
 11
-48.66606181948185
 21
238.7565729126526
 31
0.0
  0
LINE
  5
28C
330
1F
100
AcDbEntity
  8
0
  6
Continuous
 62
     7
100
AcDbLine
 10
-44.42342086766465
 20
244.8624941651342
 30
0.0
 11
-34.17037273599462
 21
239.7359704724833
 31
0.0
  0
LINE
  5
28D
330
1F
100
AcDbEntity
  8
0
  6
Continuous
 62
     7
100
AcDbLine
 10
-32.79151451195321
 20
240.4253995845039
 30
0.0
 11
-43.04456275024731
 21
245.5519232238428
 31
0.0
  0
LINE
  5
28E
330
1F
100
AcDbEntity
  8
0
  6
Continuous
 62
     7
100
AcDbLine
 10
-58.56555679617517
 20
248.036447635587
 30
0.0
 11
-58.56555692945523
 21
247.646737072519
 31
0.0
  0
LINE
  5
28F
330
1F
100
AcDbEntity
  8
0
  6
Continuous
 62
     7
100
AcDbLine
 10
-58.56555644964709
 20
244.9620581916062
 30
0.0
 11
-58.56555772913546
 21
244.5723456559936
 31
0.0
  0
LINE
  5
290
330
1F
100
AcDbEntity
  8
0
  6
Continuous
 62
     7
100
AcDbLine
 10
-57.85844976650961
 20
245.3156115331749
 30
0.0
 11
-58.56555644964709
 21
244.9620581916062
 31
0.0
  0
LINE
  5
291
330
1F
100
AcDbEntity
  8
0
  6
Continuous
 62
     7
100
AcDbLine
 10
-51.49448855203184
 20
244.1112026972152
 30
0.0
 11
-58.56555692945523
 21
247.646737072519
 31
0.0
  0
LINE
  5
292
330
1F
100
AcDbEntity
  8
0
  6
Continuous
 62
     7
100
AcDbLine
 10
-58.56555644964709
 20
244.9620581916062
 30
0.0
 11
-51.49448897852795
 21
241.4265234964303
 31
0.0
  0
LINE
  5
293
330
1F
100
AcDbEntity
  8
0
  6
Continuous
 62
     7
100
AcDbLine
 10
-57.85844976650961
 20
245.3156115331749
 30
0.0
 11
-51.4944887896213
 21
242.1336301810761
 31
0.0
  0
LINE
  5
294
330
1F
100
AcDbEntity
  8
0
  6
Continuous
 62
     7
100
AcDbLine
 10
-48.66606139298574
 20
237.0245222693841
 30
0.0
 11
-63.06979028938801
 21
244.226386077841
 31
0.0
  0
LINE
  5
295
330
1F
100
AcDbEntity
  8
0
  6
Continuous
 62
     7
100
AcDbLine
 10
-48.66606139298574
 20
237.0245222693841
 30
0.0
 11
-47.25184802671075
 21
237.7316289525216
 31
0.0
  0
LINE
  5
296
330
1F
100
AcDbEntity
  8
0
  6
Continuous
 62
     7
100
AcDbLine
 10
-46.19118842850062
 20
237.5191357906659
 30
0.0
 11
-46.19118800200451
 21
235.7870851473973
 31
0.0
  0
LINE
  5
297
330
1F
100
AcDbEntity
  8
0
  6
Continuous
 62
     7
100
AcDbLine
 10
-46.19118836025265
 20
237.2012989365085
 30
0.0
 11
-47.25184802671075
 21
237.7316289525216
 31
0.0
  0
LINE
  5
298
330
1F
100
AcDbEntity
  8
0
  6
Continuous
 62
     2
100
AcDbLine
 10
-31.4482020205991
 20
232.6743780125095
 30
0.0
 11
-31.54430417806523
 21
232.7408773941602
 31
0.0
  0
LINE
  5
299
330
1F
100
AcDbEntity
  8
0
  6
Continuous
 62
     2
100
AcDbLine
 10
-31.35368941417212
 20
232.572362806212
 30
0.0
 11
-31.4482020205991
 21
232.6743780125095
 31
0.0
  0
LINE
  5
29A
330
1F
100
AcDbEntity
  8
0
  6
Continuous
 62
     2
100
AcDbLine
 10
-31.2983023889274
 20
232.4884316218336
 30
0.0
 11
-31.35368941417212
 21
232.572362806212
 31
0.0
  0
LINE
  5
29B
330
1F
100
AcDbEntity
  8
0
  6
Continuous
 62
     2
100
AcDbLine
 10
-31.25335769468421
 20
232.3971531887964
 30
0.0
 11
-31.2983023889274
 21
232.4884316218336
 31
0.0
  0
LINE
  5
29C
330
1F
100
AcDbEntity
  8
0
  6
Continuous
 62
     2
100
AcDbLine
 10
-31.21030216500444
 20
232.2589325669381
 30
0.0
 11
-31.25335769468421
 21
232.3971531887964
 31
0.0
  0
LINE
  5
29D
330
1F
100
AcDbEntity
  8
0
  6
Continuous
 62
     2
100
AcDbLine
 10
-31.19692084924012
 20
232.134238962581
 30
0.0
 11
-31.21030216500444
 21
232.2589325669381
 31
0.0
  0
LINE
  5
29E
330
1F
100
AcDbEntity
  8
0
  6
Continuous
 62
     2
100
AcDbLine
 10
-33.2349494051422
 20
233.7262851106575
 30
0.0
 11
-33.31791782784171
 21
233.6714195835435
 31
0.0
  0
LINE
  5
29F
330
1F
100
AcDbEntity
  8
0
  6
Continuous
 62
     2
100
AcDbLine
 10
-33.18272644798762
 20
233.795453505027
 30
0.0
 11
-33.2349494051422
 21
233.7262851106575
 31
0.0
  0
LINE
  5
2A0
330
1F
100
AcDbEntity
  8
0
  6
Continuous
 62
     2
100
AcDbLine
 10
-33.17149104745101
 20
233.8460153664184
 30
0.0
 11
-33.18272644798762
 21
233.795453505027
 31
0.0
  0
LINE
  5
2A1
330
1F
100
AcDbEntity
  8
0
  6
Continuous
 62
     7
100
AcDbLine
 10
-33.17381337213632
 20
238.4272671283369
 30
0.0
 11
-33.31791814771381
 21
238.5552414208169
 31
0.0
  0
LINE
  5
2A2
330
1F
100
AcDbEntity
  8
0
  6
Continuous
 62
     7
100
AcDbLine
 10
-34.17037273599462
 20
239.7359704724833
 30
0.0
 11
-32.79151451195321
 21
240.4253995845039
 31
0.0
  0
LINE
  5
2A3
330
1F
100
AcDbEntity
  8
0
  6
Continuous
 62
     2
100
AcDbLine
 10
-31.54430417806523
 20
232.7408773941602
 30
0.0
 11
-33.1273393171837
 21
233.5949609044912
 31
0.0
  0
LINE
  5
2A4
330
1F
100
AcDbEntity
  8
0
  6
Continuous
 62
     7
100
AcDbLine
 10
-34.17037225618651
 20
229.7766764214961
 30
0.0
 11
-46.19118800200451
 21
235.7870851473973
 31
0.0
  0
LINE
  5
2A5
330
1F
100
AcDbEntity
  8
0
  6
Continuous
 62
     7
100
AcDbLine
 10
-34.17037225618651
 20
229.7766764214961
 30
0.0
 11
-34.17037273599462
 21
239.7359704724833
 31
0.0
  0
LINE
  5
2A6
330
1F
100
AcDbEntity
  8
0
  6
Continuous
 62
     2
100
AcDbLine
 10
-33.31791814771381
 20
238.5552414208169
 30
0.0
 11
-33.31791782784171
 21
233.6714195835435
 31
0.0
  0
LINE
  5
2A7
330
1F
100
AcDbEntity
  8
0
  6
Continuous
 62
     2
100
AcDbLine
 10
-31.81285908202742
 20
231.9381888255109
 30
0.0
 11
-31.19692084924012
 21
232.134238962581
 31
0.0
  0
LINE
  5
2A8
330
1F
100
AcDbEntity
  8
0
  6
Continuous
 62
     2
100
AcDbLine
 10
-32.37569940086993
 20
231.9829059840741
 30
0.0
 11
-31.81285908202742
 21
231.9381888255109
 31
0.0
  0
LINE
  5
2A9
330
1F
100
AcDbEntity
  8
0
  6
Continuous
 62
     2
100
AcDbLine
 10
-32.69709322900792
 20
232.1453907698781
 30
0.0
 11
-32.37569940086993
 21
231.9829059840741
 31
0.0
  0
LINE
  5
2AA
330
1F
100
AcDbEntity
  8
0
  6
Continuous
 62
     2
100
AcDbLine
 10
-32.96053945582102
 20
232.4069439936627
 30
0.0
 11
-32.69709322900792
 21
232.1453907698781
 31
0.0
  0
LINE
  5
2AB
330
1F
100
AcDbEntity
  8
0
  6
Continuous
 62
     2
100
AcDbLine
 10
-33.22657323459393
 20
232.962880406563
 30
0.0
 11
-32.96053945582102
 21
232.4069439936627
 31
0.0
  0
LINE
  5
2AC
330
1F
100
AcDbEntity
  8
0
  6
Continuous
 62
     2
100
AcDbLine
 10
-33.31791782784171
 20
233.6714195835435
 30
0.0
 11
-33.22657323459393
 21
232.962880406563
 31
0.0
  0
LINE
  5
2AD
330
1F
100
AcDbEntity
  8
0
  6
Continuous
 62
     7
100
AcDbLine
 10
-32.88302737286202
 20
232.8392194881712
 30
0.0
 11
-32.79193743616821
 21
232.748814540265
 31
0.0
  0
LINE
  5
2AE
330
1F
100
AcDbEntity
  8
0
  6
Continuous
 62
     7
100
AcDbLine
 10
-32.88926129177
 20
232.8454065285249
 30
0.0
 11
-32.88302737286202
 21
232.8392194881712
 31
0.0
  0
LINE
  5
2AF
330
1F
100
AcDbEntity
  8
0
  6
Continuous
 62
     2
100
AcDbLine
 10
-32.05608768676913
 20
232.5766951004867
 30
0.0
 11
-31.54430417806523
 21
232.7408773941602
 31
0.0
  0
LINE
  5
2B0
330
1F
100
AcDbEntity
  8
0
  6
Continuous
 62
     2
100
AcDbLine
 10
-32.52427401572081
 20
232.6135016090166
 30
0.0
 11
-32.05608768676913
 21
232.5766951004867
 31
0.0
  0
LINE
  5
2B1
330
1F
100
AcDbEntity
  8
0
  6
Continuous
 62
     7
100
AcDbLine
 10
-32.79193743616821
 20
232.748814540265
 30
0.0
 11
-32.52427401572081
 21
232.6135016090166
 31
0.0
  0
LINE
  5
2B2
330
1F
100
AcDbEntity
  8
0
  6
Continuous
 62
     7
100
AcDbLine
 10
-33.01164158117231
 20
232.9668676121646
 30
0.0
 11
-32.88926129177
 21
232.8454065285249
 31
0.0
  0
LINE
  5
2B3
330
1F
100
AcDbEntity
  8
0
  6
Continuous
 62
     7
100
AcDbLine
 10
-47.0
 20
175.3360306356454
 30
0.0
 11
-47.44999980926514
 21
175.3360306356454
 31
0.0
  0
LINE
  5
2B4
330
1F
100
AcDbEntity
  8
0
  6
Continuous
 62
     7
100
AcDbLine
 10
-42.0
 20
172.3360301588082
 30
0.0
 11
-42.0
 21
171.8360301588082
 31
0.0
  0
LINE
  5
2B5
330
1F
100
AcDbEntity
  8
0
  6
Continuous
 62
     7
100
AcDbLine
 10
-44.0
 20
175.3360306356454
 30
0.0
 11
-42.0
 21
175.3360306356454
 31
0.0
  0
LINE
  5
2B6
330
1F
100
AcDbEntity
  8
0
  6
Continuous
 62
     2
100
AcDbLine
 10
-44.0
 20
172.3360301588082
 30
0.0
 11
-42.0
 21
172.3360301588082
 31
0.0
  0
LINE
  5
2B7
330
1F
100
AcDbEntity
  8
0
  6
Continuous
 62
     7
100
AcDbLine
 10
-44.0
 20
171.8360301588082
 30
0.0
 11
-42.0
 21
171.8360301588082
 31
0.0
  0
LINE
  5
2B8
330
1F
100
AcDbEntity
  8
0
  6
Continuous
 62
     7
100
AcDbLine
 10
-42.0
 20
175.3360306356454
 30
0.0
 11
-42.0
 21
172.3360301588082
 31
0.0
  0
LINE
  5
2B9
330
1F
100
AcDbEntity
  8
0
  6
Continuous
 62
     7
100
AcDbLine
 10
-47.44999980926514
 20
165.3360292051339
 30
0.0
 11
-47.44999980926514
 21
175.3360306356454
 31
0.0
  0
LINE
  5
2BA
330
1F
100
AcDbEntity
  8
0
  6
Continuous
 62
     7
100
AcDbLine
 10
-44.0
 20
161.3360292051339
 30
0.0
 11
-44.0
 21
181.7059780691171
 31
0.0
  0
LINE
  5
2BB
330
1F
100
AcDbEntity
  8
0
  6
Continuous
 62
     7
100
AcDbLine
 10
-50.54999923706055
 20
175.3360306356454
 30
0.0
 11
-50.54999923706055
 21
165.3360292051339
 31
0.0
  0
LINE
  5
2BC
330
1F
100
AcDbEntity
  8
0
  6
Continuous
 62
     7
100
AcDbLine
 10
-50.54999923706055
 20
175.3360306356454
 30
0.0
 11
-51.00000000000001
 21
175.3360306356454
 31
0.0
  0
LINE
  5
2BD
330
1F
100
AcDbEntity
  8
0
  6
Continuous
 62
     7
100
AcDbLine
 10
-51.00000000000001
 20
193.1360289190316
 30
0.0
 11
-51.00000000000001
 21
175.3360306356454
 31
0.0
  0
LINE
  5
2BE
330
1F
100
AcDbEntity
  8
0
  6
Continuous
 62
     7
100
AcDbLine
 10
-47.0
 20
175.3360306356454
 30
0.0
 11
-47.0
 21
193.1360289190316
 31
0.0
  0
LINE
  5
2BF
330
1F
100
AcDbEntity
  8
0
  6
Continuous
 62
     7
100
AcDbLine
 10
-45.0
 20
193.1360289190316
 30
0.0
 11
-44.0
 21
181.7059780691171
 31
0.0
  0
LINE
  5
2C0
330
1F
100
AcDbEntity
  8
0
  6
Continuous
 62
     7
100
AcDbLine
 10
-47.0
 20
193.1360289190316
 30
0.0
 11
-51.00000000000001
 21
193.1360289190316
 31
0.0
  0
LINE
  5
2C1
330
1F
100
AcDbEntity
  8
0
  6
Continuous
 62
     7
100
AcDbLine
 10
-47.0
 20
193.1360289190316
 30
0.0
 11
-45.0
 21
193.1360289190316
 31
0.0
  0
LINE
  5
2C2
330
1F
100
AcDbEntity
  8
0
  6
Continuous
 62
     7
100
AcDbLine
 10
-70.54999923706055
 20
175.3360306356454
 30
0.0
 11
-71.0
 21
175.3360306356454
 31
0.0
  0
LINE
  5
2C3
330
1F
100
AcDbEntity
  8
0
  6
Continuous
 62
     7
100
AcDbLine
 10
-76.0
 20
171.8360301588082
 30
0.0
 11
-76.0
 21
172.3360301588082
 31
0.0
  0
LINE
  5
2C4
330
1F
100
AcDbEntity
  8
0
  6
Continuous
 62
     7
100
AcDbLine
 10
-74.0
 20
171.8360301588082
 30
0.0
 11
-76.0
 21
171.8360301588082
 31
0.0
  0
LINE
  5
2C5
330
1F
100
AcDbEntity
  8
0
  6
Continuous
 62
     2
100
AcDbLine
 10
-74.0
 20
172.3360301588082
 30
0.0
 11
-76.0
 21
172.3360301588082
 31
0.0
  0
LINE
  5
2C6
330
1F
100
AcDbEntity
  8
0
  6
Continuous
 62
     7
100
AcDbLine
 10
-76.0
 20
175.3360306356454
 30
0.0
 11
-74.0
 21
175.3360306356454
 31
0.0
  0
LINE
  5
2C7
330
1F
100
AcDbEntity
  8
0
  6
Continuous
 62
     7
100
AcDbLine
 10
-76.0
 20
172.3360301588082
 30
0.0
 11
-76.0
 21
175.3360306356454
 31
0.0
  0
LINE
  5
2C8
330
1F
100
AcDbEntity
  8
0
  6
Continuous
 62
     7
100
AcDbLine
 10
-70.54999923706055
 20
175.3360306356454
 30
0.0
 11
-70.54999923706055
 21
165.3360292051339
 31
0.0
  0
LINE
  5
2C9
330
1F
100
AcDbEntity
  8
0
  6
Continuous
 62
     7
100
AcDbLine
 10
-74.0
 20
161.3360292051339
 30
0.0
 11
-74.0
 21
181.7059780691171
 31
0.0
  0
LINE
  5
2CA
330
1F
100
AcDbEntity
  8
0
  6
Continuous
 62
     7
100
AcDbLine
 10
-67.00000000000001
 20
193.1360289190316
 30
0.0
 11
-51.00000000000001
 21
193.1360289190316
 31
0.0
  0
LINE
  5
2CB
330
1F
100
AcDbEntity
  8
0
  6
Continuous
 62
     7
100
AcDbLine
 10
-67.44999885559083
 20
165.3360292051339
 30
0.0
 11
-67.44999885559083
 21
175.3360306356454
 31
0.0
  0
LINE
  5
2CC
330
1F
100
AcDbEntity
  8
0
  6
Continuous
 62
     7
100
AcDbLine
 10
-67.00000000000001
 20
175.3360306356454
 30
0.0
 11
-67.44999885559083
 21
175.3360306356454
 31
0.0
  0
LINE
  5
2CD
330
1F
100
AcDbEntity
  8
0
  6
Continuous
 62
     7
100
AcDbLine
 10
-71.0
 20
193.1360289190316
 30
0.0
 11
-71.0
 21
175.3360306356454
 31
0.0
  0
LINE
  5
2CE
330
1F
100
AcDbEntity
  8
0
  6
Continuous
 62
     7
100
AcDbLine
 10
-74.0
 20
181.7059780691171
 30
0.0
 11
-73.0
 21
193.1360289190316
 31
0.0
  0
LINE
  5
2CF
330
1F
100
AcDbEntity
  8
0
  6
Continuous
 62
     7
100
AcDbLine
 10
-67.00000000000001
 20
193.1360289190316
 30
0.0
 11
-71.0
 21
193.1360289190316
 31
0.0
  0
LINE
  5
2D0
330
1F
100
AcDbEntity
  8
0
  6
Continuous
 62
     7
100
AcDbLine
 10
-73.0
 20
193.1360289190316
 30
0.0
 11
-71.0
 21
193.1360289190316
 31
0.0
  0
LINE
  5
2D1
330
1F
100
AcDbEntity
  8
0
  6
Continuous
 62
     7
100
AcDbLine
 10
-67.00000000000001
 20
175.3360306356454
 30
0.0
 11
-67.00000000000001
 21
193.1360289190316
 31
0.0
  0
LINE
  5
2D2
330
1F
100
AcDbEntity
  8
0
  6
Continuous
 62
     7
100
AcDbLine
 10
-44.0
 20
161.3360292051339
 30
0.0
 11
-46.0
 21
161.3360292051339
 31
0.0
  0
LINE
  5
2D3
330
1F
100
AcDbEntity
  8
0
  6
Continuous
 62
     7
100
AcDbLine
 10
-44.0
 20
157.836029681971
 30
0.0
 11
-46.0
 21
157.836029681971
 31
0.0
  0
LINE
  5
2D4
330
1F
100
AcDbEntity
  8
0
  6
Continuous
 62
     7
100
AcDbLine
 10
-47.44999980926514
 20
165.3360292051339
 30
0.0
 11
-50.54999923706055
 21
165.3360292051339
 31
0.0
  0
LINE
  5
2D5
330
1F
100
AcDbEntity
  8
0
  6
Continuous
 62
     7
100
AcDbLine
 10
-44.0
 20
157.836029681971
 30
0.0
 11
-44.0
 21
161.3360292051339
 31
0.0
  0
LINE
  5
2D6
330
1F
100
AcDbEntity
  8
0
  6
Continuous
 62
     7
100
AcDbLine
 10
-46.0
 20
161.3360292051339
 30
0.0
 11
-46.0
 21
157.836029681971
 31
0.0
  0
LINE
  5
2D7
330
1F
100
AcDbEntity
  8
0
  6
Continuous
 62
     7
100
AcDbLine
 10
-44.0
 20
157.836029681971
 30
0.0
 11
-44.0
 21
140.836029681971
 31
0.0
  0
LINE
  5
2D8
330
1F
100
AcDbEntity
  8
0
  6
Continuous
 62
     7
100
AcDbLine
 10
-55.49999928474426
 20
140.836029681971
 30
0.0
 11
-44.0
 21
140.836029681971
 31
0.0
  0
LINE
  5
2D9
330
1F
100
AcDbEntity
  8
0
  6
Continuous
 62
     7
100
AcDbLine
 10
-55.49999928474426
 20
140.836029681971
 30
0.0
 11
-55.49999928474426
 21
155.336029681971
 31
0.0
  0
LINE
  5
2DA
330
1F
100
AcDbEntity
  8
0
  6
Continuous
 62
     7
100
AcDbLine
 10
-62.49999928474426
 20
140.836029681971
 30
0.0
 11
-55.49999928474426
 21
140.836029681971
 31
0.0
  0
LINE
  5
2DB
330
1F
100
AcDbEntity
  8
0
  6
Continuous
 62
     7
100
AcDbLine
 10
-55.49999928474426
 20
155.336029681971
 30
0.0
 11
-62.49999928474426
 21
155.336029681971
 31
0.0
  0
LINE
  5
2DC
330
1F
100
AcDbEntity
  8
0
  6
Continuous
 62
     7
100
AcDbLine
 10
-72.0
 20
161.3360292051339
 30
0.0
 11
-74.0
 21
161.3360292051339
 31
0.0
  0
LINE
  5
2DD
330
1F
100
AcDbEntity
  8
0
  6
Continuous
 62
     7
100
AcDbLine
 10
-72.0
 20
157.836029681971
 30
0.0
 11
-74.0
 21
157.836029681971
 31
0.0
  0
LINE
  5
2DE
330
1F
100
AcDbEntity
  8
0
  6
Continuous
 62
     7
100
AcDbLine
 10
-74.0
 20
157.836029681971
 30
0.0
 11
-74.0
 21
161.3360292051339
 31
0.0
  0
LINE
  5
2DF
330
1F
100
AcDbEntity
  8
0
  6
Continuous
 62
     7
100
AcDbLine
 10
-72.0
 20
157.836029681971
 30
0.0
 11
-72.0
 21
161.3360292051339
 31
0.0
  0
LINE
  5
2E0
330
1F
100
AcDbEntity
  8
0
  6
Continuous
 62
     7
100
AcDbLine
 10
-67.44999885559083
 20
165.3360292051339
 30
0.0
 11
-70.54999923706055
 21
165.3360292051339
 31
0.0
  0
LINE
  5
2E1
330
1F
100
AcDbEntity
  8
0
  6
Continuous
 62
     7
100
AcDbLine
 10
-74.0
 20
140.836029681971
 30
0.0
 11
-74.0
 21
157.836029681971
 31
0.0
  0
LINE
  5
2E2
330
1F
100
AcDbEntity
  8
0
  6
Continuous
 62
     7
100
AcDbLine
 10
-74.0
 20
140.836029681971
 30
0.0
 11
-62.49999928474426
 21
140.836029681971
 31
0.0
  0
LINE
  5
2E3
330
1F
100
AcDbEntity
  8
0
  6
Continuous
 62
     7
100
AcDbLine
 10
-62.49999928474426
 20
155.336029681971
 30
0.0
 11
-62.49999928474426
 21
140.836029681971
 31
0.0
  0
LINE
  5
2E4
330
1F
100
AcDbEntity
  8
0
  6
Continuous
 62
     7
100
AcDbLine
 10
-124.8500003814697
 20
266.3324881841862
 30
0.0
 11
-124.8500003814697
 21
264.3324881841862
 31
0.0
  0
LINE
  5
2E5
330
1F
100
AcDbEntity
  8
0
  6
Continuous
 62
     2
100
AcDbLine
 10
-124.0791664123535
 20
262.7193528463565
 30
0.0
 11
-124.8050956726074
 21
262.8270121862614
 31
0.0
  0
LINE
  5
2E6
330
1F
100
AcDbEntity
  8
0
  6
Continuous
 62
     2
100
AcDbLine
 10
-124.8050956726074
 20
262.8270121862614
 30
0.0
 11
-125.049617767334
 21
262.5824881841862
 31
0.0
  0
LINE
  5
2E7
330
1F
100
AcDbEntity
  8
0
  6
Continuous
 62
     2
100
AcDbLine
 10
-124.8050956726074
 20
263.3269358923161
 30
0.0
 11
-124.8050956726074
 21
262.8270121862614
 31
0.0
  0
LINE
  5
2E8
330
1F
100
AcDbEntity
  8
0
  6
Continuous
 62
     2
100
AcDbLine
 10
-122.305477142334
 20
260.3273927023136
 30
0.0
 11
-121.8055515289307
 21
260.3273927023136
 31
0.0
  0
LINE
  5
2E9
330
1F
100
AcDbEntity
  8
0
  6
Continuous
 62
     7
100
AcDbLine
 10
-124.8500003814697
 20
266.3324881841862
 30
0.0
 11
-125.3500003814697
 21
266.3324881841862
 31
0.0
  0
LINE
  5
2EA
330
1F
100
AcDbEntity
  8
0
  6
Continuous
 62
     7
100
AcDbLine
 10
-119.6999988555908
 20
260.668551569196
 30
0.0
 11
-120.6000003814697
 21
260.668551569196
 31
0.0
  0
LINE
  5
2EB
330
1F
100
AcDbEntity
  8
0
  6
Continuous
 62
     7
100
AcDbLine
 10
-120.6000003814697
 20
259.668551569196
 30
0.0
 11
-119.6999988555908
 21
259.668551569196
 31
0.0
  0
LINE
  5
2EC
330
1F
100
AcDbEntity
  8
0
  6
Continuous
 62
     7
100
AcDbLine
 10
-120.6000003814697
 20
257.9964257528507
 30
0.0
 11
-119.6999988555908
 21
257.9964257528507
 31
0.0
  0
LINE
  5
2ED
330
1F
100
AcDbEntity
  8
0
  6
Continuous
 62
     7
100
AcDbLine
 10
-119.6999988555908
 20
258.9964257528507
 30
0.0
 11
-120.6000003814697
 21
258.9964257528507
 31
0.0
  0
LINE
  5
2EE
330
1F
100
AcDbEntity
  8
0
  6
Continuous
 62
     7
100
AcDbLine
 10
-119.6999988555908
 20
259.668551569196
 30
0.0
 11
-119.6999988555908
 21
260.668551569196
 31
0.0
  0
LINE
  5
2EF
330
1F
100
AcDbEntity
  8
0
  6
Continuous
 62
     7
100
AcDbLine
 10
-119.6999988555908
 20
257.9964257528507
 30
0.0
 11
-119.6999988555908
 21
258.9964257528507
 31
0.0
  0
LINE
  5
2F0
330
1F
100
AcDbEntity
  8
0
  6
Continuous
 62
     2
100
AcDbLine
 10
-125.3500003814697
 20
266.3324881841862
 30
0.0
 11
-125.3500003814697
 21
264.3324881841862
 31
0.0
  0
LINE
  5
2F1
330
1F
100
AcDbEntity
  8
0
  6
Continuous
 62
     7
100
AcDbLine
 10
-122.587854385376
 20
260.5162946035587
 30
0.0
 11
-122.5499992370606
 21
260.0828696539127
 31
0.0
  0
LINE
  5
2F2
330
1F
100
AcDbEntity
  8
0
  6
Continuous
 62
     7
100
AcDbLine
 10
-122.8846054077148
 20
261.3322984029971
 30
0.0
 11
-122.587854385376
 21
260.5162946035587
 31
0.0
  0
LINE
  5
2F3
330
1F
100
AcDbEntity
  8
0
  6
Continuous
 62
     7
100
AcDbLine
 10
-123.4425830841065
 20
261.9975100805484
 30
0.0
 11
-122.8846054077148
 21
261.3322984029971
 31
0.0
  0
LINE
  5
2F4
330
1F
100
AcDbEntity
  8
0
  6
Continuous
 62
     7
100
AcDbLine
 10
-124.1944847106934
 20
262.4316970159732
 30
0.0
 11
-123.4425830841065
 21
261.9975100805484
 31
0.0
  0
LINE
  5
2F5
330
1F
100
AcDbEntity
  8
0
  6
Continuous
 62
     7
100
AcDbLine
 10
-125.049617767334
 20
262.5824881841862
 30
0.0
 11
-124.1944847106934
 21
262.4316970159732
 31
0.0
  0
LINE
  5
2F6
330
1F
100
AcDbEntity
  8
0
  6
Continuous
 62
     2
100
AcDbLine
 10
-122.305477142334
 20
260.3273927023136
 30
0.0
 11
-122.5499992370606
 21
260.0828696539127
 31
0.0
  0
LINE
  5
2F7
330
1F
100
AcDbEntity
  8
0
  6
Continuous
 62
     2
100
AcDbLine
 10
-123.9340267181396
 20
263.1976996710025
 30
0.0
 11
-124.8050956726074
 21
263.3269358923161
 31
0.0
  0
LINE
  5
2F8
330
1F
100
AcDbEntity
  8
0
  6
Continuous
 62
     2
100
AcDbLine
 10
-123.1380519866943
 20
262.8211108495915
 30
0.0
 11
-123.9340267181396
 21
263.1976996710025
 31
0.0
  0
LINE
  5
2F9
330
1F
100
AcDbEntity
  8
0
  6
Continuous
 62
     2
100
AcDbLine
 10
-122.6835308074951
 20
262.44793332121
 30
0.0
 11
-123.1380519866943
 21
262.8211108495915
 31
0.0
  0
LINE
  5
2FA
330
1F
100
AcDbEntity
  8
0
  6
Continuous
 62
     2
100
AcDbLine
 10
-122.3109626770019
 20
261.9938155462467
 30
0.0
 11
-122.6835308074951
 21
262.44793332121
 31
0.0
  0
LINE
  5
2FB
330
1F
100
AcDbEntity
  8
0
  6
Continuous
 62
     2
100
AcDbLine
 10
-121.9347324371338
 20
261.198279504987
 30
0.0
 11
-122.3109626770019
 21
261.9938155462467
 31
0.0
  0
LINE
  5
2FC
330
1F
100
AcDbEntity
  8
0
  6
Continuous
 62
     2
100
AcDbLine
 10
-121.8055515289307
 20
260.3273927023136
 30
0.0
 11
-121.9347324371338
 21
261.198279504987
 31
0.0
  0
LINE
  5
2FD
330
1F
100
AcDbEntity
  8
0
  6
Continuous
 62
     2
100
AcDbLine
 10
-123.4158325195312
 20
262.4055501272404
 30
0.0
 11
-124.0791664123535
 21
262.7193528463565
 31
0.0
  0
LINE
  5
2FE
330
1F
100
AcDbEntity
  8
0
  6
Continuous
 62
     2
100
AcDbLine
 10
-123.0370616912842
 20
262.0945731451237
 30
0.0
 11
-123.4158325195312
 21
262.4055501272404
 31
0.0
  0
LINE
  5
2FF
330
1F
100
AcDbEntity
  8
0
  6
Continuous
 62
     2
100
AcDbLine
 10
-122.7265911102295
 20
261.7161370565617
 30
0.0
 11
-123.0370616912842
 21
262.0945731451237
 31
0.0
  0
LINE
  5
300
330
1F
100
AcDbEntity
  8
0
  6
Continuous
 62
     2
100
AcDbLine
 10
-122.4130897521973
 20
261.0531693746768
 30
0.0
 11
-122.7265911102295
 21
261.7161370565617
 31
0.0
  0
LINE
  5
301
330
1F
100
AcDbEntity
  8
0
  6
Continuous
 62
     2
100
AcDbLine
 10
-122.305477142334
 20
260.3273927023136
 30
0.0
 11
-122.4130897521973
 21
261.0531693746768
 31
0.0
  0
LINE
  5
302
330
1F
100
AcDbEntity
  8
0
  6
Continuous
 62
     2
100
AcDbLine
 10
-131.0945990085602
 20
262.8270121862614
 30
0.0
 11
-130.850075006485
 21
262.5824881841862
 31
0.0
  0
LINE
  5
303
330
1F
100
AcDbEntity
  8
0
  6
Continuous
 62
     7
100
AcDbLine
 10
-133.2999994754791
 20
261.3324881841862
 30
0.0
 11
-133.2999994754791
 21
264.3324881841862
 31
0.0
  0
LINE
  5
304
330
1F
100
AcDbEntity
  8
0
  6
Continuous
 62
     2
100
AcDbLine
 10
-131.5945227146149
 20
262.3270875265324
 30
0.0
 11
-131.3500006198883
 21
262.0825644781314
 31
0.0
  0
LINE
  5
305
330
1F
100
AcDbEntity
  8
0
  6
Continuous
 62
     7
100
AcDbLine
 10
-131.3500006198883
 20
259.6324883749211
 30
0.0
 11
-131.3500006198883
 21
262.0825644781314
 31
0.0
  0
LINE
  5
306
330
1F
100
AcDbEntity
  8
0
  6
Continuous
 62
     7
100
AcDbLine
 10
-131.5945227146149
 20
259.8770114233219
 30
0.0
 11
-131.3500006198883
 21
259.6324883749211
 31
0.0
  0
LINE
  5
307
330
1F
100
AcDbEntity
  8
0
  6
Continuous
 62
     2
100
AcDbLine
 10
-131.5945227146149
 20
262.3270875265324
 30
0.0
 11
-132.0944464206696
 21
262.3270903875552
 31
0.0
  0
LINE
  5
308
330
1F
100
AcDbEntity
  8
0
  6
Continuous
 62
     2
100
AcDbLine
 10
-131.0945990085602
 20
263.3269358923161
 30
0.0
 11
-131.0945990085602
 21
262.8270121862614
 31
0.0
  0
LINE
  5
309
330
1F
100
AcDbEntity
  8
0
  6
Continuous
 62
     7
100
AcDbLine
 10
-131.021103143692
 20
262.5523301412785
 30
0.0
 11
-130.850075006485
 21
262.5824881841862
 31
0.0
  0
LINE
  5
30A
330
1F
100
AcDbEntity
  8
0
  6
Continuous
 62
     7
100
AcDbLine
 10
-131.1714823246002
 20
262.465493326398
 30
0.0
 11
-131.021103143692
 21
262.5523301412785
 31
0.0
  0
LINE
  5
30B
330
1F
100
AcDbEntity
  8
0
  6
Continuous
 62
     7
100
AcDbLine
 10
-131.2830774784088
 20
262.3324500372135
 30
0.0
 11
-131.1714823246002
 21
262.465493326398
 31
0.0
  0
LINE
  5
30C
330
1F
100
AcDbEntity
  8
0
  6
Continuous
 62
     7
100
AcDbLine
 10
-131.342428445816
 20
262.1692496587956
 30
0.0
 11
-131.2830774784088
 21
262.3324500372135
 31
0.0
  0
LINE
  5
30D
330
1F
100
AcDbEntity
  8
0
  6
Continuous
 62
     7
100
AcDbLine
 10
-131.3500006198883
 20
262.0825644781314
 30
0.0
 11
-131.342428445816
 21
262.1692496587956
 31
0.0
  0
LINE
  5
30E
330
1F
100
AcDbEntity
  8
0
  6
Continuous
 62
     2
100
AcDbLine
 10
-131.5731165409088
 20
262.4719859411441
 30
0.0
 11
-131.5945227146149
 21
262.3270875265324
 31
0.0
  0
LINE
  5
30F
330
1F
100
AcDbEntity
  8
0
  6
Continuous
 62
     2
100
AcDbLine
 10
-131.510288476944
 20
262.6049701025211
 30
0.0
 11
-131.5731165409088
 21
262.4719859411441
 31
0.0
  0
LINE
  5
310
330
1F
100
AcDbEntity
  8
0
  6
Continuous
 62
     2
100
AcDbLine
 10
-131.4479506015778
 20
262.6808797170841
 30
0.0
 11
-131.510288476944
 21
262.6049701025211
 31
0.0
  0
LINE
  5
311
330
1F
100
AcDbEntity
  8
0
  6
Continuous
 62
     2
100
AcDbLine
 10
-131.3720629215241
 20
262.7430573751651
 30
0.0
 11
-131.4479506015778
 21
262.6808797170841
 31
0.0
  0
LINE
  5
312
330
1F
100
AcDbEntity
  8
0
  6
Continuous
 62
     2
100
AcDbLine
 10
-131.2392675876617
 20
262.8056756307803
 30
0.0
 11
-131.3720629215241
 21
262.7430573751651
 31
0.0
  0
LINE
  5
313
330
1F
100
AcDbEntity
  8
0
  6
Continuous
 62
     2
100
AcDbLine
 10
-131.0945990085602
 20
262.8270121862614
 30
0.0
 11
-131.2392675876617
 21
262.8056756307803
 31
0.0
  0
LINE
  5
314
330
1F
100
AcDbEntity
  8
0
  6
Continuous
 62
     7
100
AcDbLine
 10
-131.0499994754791
 20
266.3324881841862
 30
0.0
 11
-130.5499997138977
 21
266.3324881841862
 31
0.0
  0
LINE
  5
315
330
1F
100
AcDbEntity
  8
0
  6
Continuous
 62
     7
100
AcDbLine
 10
-132.0944464206696
 20
260.3769351293765
 30
0.0
 11
-131.5945227146149
 21
259.8770114233219
 31
0.0
  0
LINE
  5
316
330
1F
100
AcDbEntity
  8
0
  6
Continuous
 62
     2
100
AcDbLine
 10
-132.0515596866608
 20
262.6168099691593
 30
0.0
 11
-132.0944464206696
 21
262.3270903875552
 31
0.0
  0
LINE
  5
317
330
1F
100
AcDbEntity
  8
0
  6
Continuous
 62
     2
100
AcDbLine
 10
-131.9258615970612
 20
262.8827344228947
 30
0.0
 11
-132.0515596866608
 21
262.6168099691593
 31
0.0
  0
LINE
  5
318
330
1F
100
AcDbEntity
  8
0
  6
Continuous
 62
     2
100
AcDbLine
 10
-131.8011763095856
 20
263.0345450689517
 30
0.0
 11
-131.9258615970612
 21
262.8827344228947
 31
0.0
  0
LINE
  5
319
330
1F
100
AcDbEntity
  8
0
  6
Continuous
 62
     2
100
AcDbLine
 10
-131.6494066715241
 20
263.1589099218571
 30
0.0
 11
-131.8011763095856
 21
263.0345450689517
 31
0.0
  0
LINE
  5
31A
330
1F
100
AcDbEntity
  8
0
  6
Continuous
 62
     2
100
AcDbLine
 10
-131.3838655948639
 20
263.2841864874088
 30
0.0
 11
-131.6494066715241
 21
263.1589099218571
 31
0.0
  0
LINE
  5
31B
330
1F
100
AcDbEntity
  8
0
  6
Continuous
 62
     2
100
AcDbLine
 10
-131.0945990085602
 20
263.3269358923161
 30
0.0
 11
-131.3838655948639
 21
263.2841864874088
 31
0.0
  0
LINE
  5
31C
330
1F
100
AcDbEntity
  8
0
  6
Continuous
 62
     2
100
AcDbLine
 10
-132.0944464206696
 20
262.3270903875552
 30
0.0
 11
-132.0944464206696
 21
260.3769351293765
 31
0.0
  0
LINE
  5
31D
330
1F
100
AcDbEntity
  8
0
  6
Continuous
 62
     7
100
AcDbLine
 10
-131.0499994754791
 20
264.3324881841862
 30
0.0
 11
-131.0499994754791
 21
266.3324881841862
 31
0.0
  0
LINE
  5
31E
330
1F
100
AcDbEntity
  8
0
  6
Continuous
 62
     2
100
AcDbLine
 10
-130.5499997138977
 20
264.3324881841862
 30
0.0
 11
-130.5499997138977
 21
266.3324881841862
 31
0.0
  0
LINE
  5
31F
330
1F
100
AcDbEntity
  8
0
  6
Continuous
 62
     2
100
AcDbLine
 10
-131.5945227146149
 20
262.3270875265324
 30
0.0
 11
-131.5945227146149
 21
259.8770114233219
 31
0.0
  0
LINE
  5
320
330
1F
100
AcDbEntity
  8
0
  6
Continuous
 62
     7
100
AcDbLine
 10
-125.3500003814697
 20
266.3324881841862
 30
0.0
 11
-130.5499997138977
 21
266.3324881841862
 31
0.0
  0
LINE
  5
321
330
1F
100
AcDbEntity
  8
0
  6
Continuous
 62
     7
100
AcDbLine
 10
-130.850075006485
 20
262.5824881841862
 30
0.0
 11
-125.049617767334
 21
262.5824881841862
 31
0.0
  0
LINE
  5
322
330
1F
100
AcDbEntity
  8
0
  6
Continuous
 62
     2
100
AcDbLine
 10
-124.8050956726074
 20
262.8270121862614
 30
0.0
 11
-131.0945990085602
 21
262.8270121862614
 31
0.0
  0
LINE
  5
323
330
1F
100
AcDbEntity
  8
0
  6
Continuous
 62
     2
100
AcDbLine
 10
-124.8050956726074
 20
263.3269358923161
 30
0.0
 11
-131.0945990085602
 21
263.3269358923161
 31
0.0
  0
LINE
  5
324
330
1F
100
AcDbEntity
  8
0
  6
Continuous
 62
     7
100
AcDbLine
 10
-122.305477142334
 20
255.187965517255
 30
0.0
 11
-121.8055515289307
 21
254.6880418112003
 31
0.0
  0
LINE
  5
325
330
1F
100
AcDbEntity
  8
0
  6
Continuous
 62
     7
100
AcDbLine
 10
-124.1554756164551
 20
255.187965517255
 30
0.0
 11
-123.6555519104004
 21
254.6880418112003
 31
0.0
  0
LINE
  5
326
330
1F
100
AcDbEntity
  8
0
  6
Continuous
 62
     2
100
AcDbLine
 10
-123.6555519104004
 20
254.6880418112003
 30
0.0
 11
-121.8055515289307
 21
254.6880418112003
 31
0.0
  0
LINE
  5
327
330
1F
100
AcDbEntity
  8
0
  6
Continuous
 62
     2
100
AcDbLine
 10
-124.1554756164551
 20
255.187965517255
 30
0.0
 11
-122.305477142334
 21
255.187965517255
 31
0.0
  0
LINE
  5
328
330
1F
100
AcDbEntity
  8
0
  6
Continuous
 62
     7
100
AcDbLine
 10
-122.5499992370606
 20
255.4324885656559
 30
0.0
 11
-124.3999996185303
 21
255.4324885656559
 31
0.0
  0
LINE
  5
329
330
1F
100
AcDbEntity
  8
0
  6
Continuous
 62
     7
100
AcDbLine
 10
-120.6000003814697
 20
252.8324888994419
 30
0.0
 11
-122.5499992370606
 21
252.8324888994419
 31
0.0
  0
LINE
  5
32A
330
1F
100
AcDbEntity
  8
0
  6
Continuous
 62
     7
100
AcDbLine
 10
-122.5499992370606
 20
260.0828696539127
 30
0.0
 11
-122.5499992370606
 21
255.4324885656559
 31
0.0
  0
LINE
  5
32B
330
1F
100
AcDbEntity
  8
0
  6
Continuous
 62
     2
100
AcDbLine
 10
-122.305477142334
 20
255.187965517255
 30
0.0
 11
-122.305477142334
 21
260.3273927023136
 31
0.0
  0
LINE
  5
32C
330
1F
100
AcDbEntity
  8
0
  6
Continuous
 62
     2
100
AcDbLine
 10
-121.8055515289307
 20
254.6880418112003
 30
0.0
 11
-121.8055515289307
 21
260.3273927023136
 31
0.0
  0
LINE
  5
32D
330
1F
100
AcDbEntity
  8
0
  6
Continuous
 62
     7
100
AcDbLine
 10
-122.5499992370606
 20
252.8324888994419
 30
0.0
 11
-122.5499992370606
 21
245.8324888994419
 31
0.0
  0
LINE
  5
32E
330
1F
100
AcDbEntity
  8
0
  6
Continuous
 62
     7
100
AcDbLine
 10
-120.6000003814697
 20
245.8324888994419
 30
0.0
 11
-120.6000003814697
 21
252.8324888994419
 31
0.0
  0
LINE
  5
32F
330
1F
100
AcDbEntity
  8
0
  6
Continuous
 62
     7
100
AcDbLine
 10
-122.305477142334
 20
255.187965517255
 30
0.0
 11
-122.5499992370606
 21
255.4324885656559
 31
0.0
  0
LINE
  5
330
330
1F
100
AcDbEntity
  8
0
  6
Continuous
 62
     7
100
AcDbLine
 10
-124.3999996185303
 20
255.4324885656559
 30
0.0
 11
-124.1554756164551
 21
255.187965517255
 31
0.0
  0
LINE
  5
331
330
1F
100
AcDbEntity
  8
0
  6
Continuous
 62
     2
100
AcDbLine
 10
-123.6555519104004
 20
243.9769355108463
 30
0.0
 11
-123.6555519104004
 21
254.6880418112003
 31
0.0
  0
LINE
  5
332
330
1F
100
AcDbEntity
  8
0
  6
Continuous
 62
     7
100
AcDbLine
 10
-120.6000003814697
 20
264.3324881841862
 30
0.0
 11
-120.6000003814697
 21
252.8324888994419
 31
0.0
  0
LINE
  5
333
330
1F
100
AcDbEntity
  8
0
  6
Continuous
 62
     2
100
AcDbLine
 10
-124.1554756164551
 20
243.4770118047917
 30
0.0
 11
-124.1554756164551
 21
255.187965517255
 31
0.0
  0
LINE
  5
334
330
1F
100
AcDbEntity
  8
0
  6
Continuous
 62
     7
100
AcDbLine
 10
-133.2999994754791
 20
264.3324881841862
 30
0.0
 11
-120.6000003814697
 21
264.3324881841862
 31
0.0
  0
LINE
  5
335
330
1F
100
AcDbEntity
  8
0
  6
Continuous
 62
     7
100
AcDbLine
 10
-137.2999994754791
 20
264.3324881841862
 30
0.0
 11
-137.2999994754791
 21
261.3324881841862
 31
0.0
  0
LINE
  5
336
330
1F
100
AcDbEntity
  8
0
  6
Continuous
 62
     7
100
AcDbLine
 10
-133.2999994754791
 20
264.3324881841862
 30
0.0
 11
-137.2999994754791
 21
264.3324881841862
 31
0.0
  0
LINE
  5
337
330
1F
100
AcDbEntity
  8
0
  6
Continuous
 62
     2
100
AcDbLine
 10
-139.5054001808167
 20
262.8270121862614
 30
0.0
 11
-139.7499241828919
 21
262.5824881841862
 31
0.0
  0
LINE
  5
338
330
1F
100
AcDbEntity
  8
0
  6
Continuous
 62
     2
100
AcDbLine
 10
-139.005476474762
 20
262.3270875265324
 30
0.0
 11
-139.2499995231628
 21
262.0825644781314
 31
0.0
  0
LINE
  5
339
330
1F
100
AcDbEntity
  8
0
  6
Continuous
 62
     7
100
AcDbLine
 10
-137.2999994754791
 20
261.3324881841862
 30
0.0
 11
-133.2999994754791
 21
261.3324881841862
 31
0.0
  0
LINE
  5
33A
330
1F
100
AcDbEntity
  8
0
  6
Continuous
 62
     2
100
AcDbLine
 10
-139.505398273468
 20
263.3269349386418
 30
0.0
 11
-139.5054001808167
 21
262.8270121862614
 31
0.0
  0
LINE
  5
33B
330
1F
100
AcDbEntity
  8
0
  6
Continuous
 62
     2
100
AcDbLine
 10
-139.005476474762
 20
262.3270875265324
 30
0.0
 11
-138.5055525302887
 21
262.3270884802066
 31
0.0
  0
LINE
  5
33C
330
1F
100
AcDbEntity
  8
0
  6
Continuous
 62
     7
100
AcDbLine
 10
-139.2575707435608
 20
262.1692496587956
 30
0.0
 11
-139.2499995231628
 21
262.0825644781314
 31
0.0
  0
LINE
  5
33D
330
1F
100
AcDbEntity
  8
0
  6
Continuous
 62
     7
100
AcDbLine
 10
-139.316921710968
 20
262.3324500372135
 30
0.0
 11
-139.2575707435608
 21
262.1692496587956
 31
0.0
  0
LINE
  5
33E
330
1F
100
AcDbEntity
  8
0
  6
Continuous
 62
     7
100
AcDbLine
 10
-139.4285168647766
 20
262.465493326398
 30
0.0
 11
-139.316921710968
 21
262.3324500372135
 31
0.0
  0
LINE
  5
33F
330
1F
100
AcDbEntity
  8
0
  6
Continuous
 62
     7
100
AcDbLine
 10
-139.5788969993591
 20
262.5523301412785
 30
0.0
 11
-139.4285168647766
 21
262.465493326398
 31
0.0
  0
LINE
  5
340
330
1F
100
AcDbEntity
  8
0
  6
Continuous
 62
     7
100
AcDbLine
 10
-139.7499241828919
 20
262.5824881841862
 30
0.0
 11
-139.5788969993591
 21
262.5523301412785
 31
0.0
  0
LINE
  5
341
330
1F
100
AcDbEntity
  8
0
  6
Continuous
 62
     2
100
AcDbLine
 10
-139.3605017662048
 20
262.8056060125552
 30
0.0
 11
-139.5054001808167
 21
262.8270121862614
 31
0.0
  0
LINE
  5
342
330
1F
100
AcDbEntity
  8
0
  6
Continuous
 62
     2
100
AcDbLine
 10
-139.2275176048279
 20
262.7427779485905
 30
0.0
 11
-139.3605017662048
 21
262.8056060125552
 31
0.0
  0
LINE
  5
343
330
1F
100
AcDbEntity
  8
0
  6
Continuous
 62
     2
100
AcDbLine
 10
-139.1516089439392
 20
262.6804400732243
 30
0.0
 11
-139.2275176048279
 21
262.7427779485905
 31
0.0
  0
LINE
  5
344
330
1F
100
AcDbEntity
  8
0
  6
Continuous
 62
     2
100
AcDbLine
 10
-139.0894303321838
 20
262.6045514394962
 30
0.0
 11
-139.1516089439392
 21
262.6804400732243
 31
0.0
  0
LINE
  5
345
330
1F
100
AcDbEntity
  8
0
  6
Continuous
 62
     2
100
AcDbLine
 10
-139.0268130302429
 20
262.4717561056339
 30
0.0
 11
-139.0894303321838
 21
262.6045514394962
 31
0.0
  0
LINE
  5
346
330
1F
100
AcDbEntity
  8
0
  6
Continuous
 62
     2
100
AcDbLine
 10
-139.005476474762
 20
262.3270875265324
 30
0.0
 11
-139.0268130302429
 21
262.4717561056339
 31
0.0
  0
LINE
  5
347
330
1F
100
AcDbEntity
  8
0
  6
Continuous
 62
     7
100
AcDbLine
 10
-139.5499997138977
 20
266.3324881841862
 30
0.0
 11
-140.0499997138977
 21
266.3324881841862
 31
0.0
  0
LINE
  5
348
330
1F
100
AcDbEntity
  8
0
  6
Continuous
 62
     7
100
AcDbLine
 10
-138.5055525302887
 20
260.3769351293765
 30
0.0
 11
-139.005476474762
 21
259.8770114233219
 31
0.0
  0
LINE
  5
349
330
1F
100
AcDbEntity
  8
0
  6
Continuous
 62
     2
100
AcDbLine
 10
-139.215678691864
 20
263.2840491583073
 30
0.0
 11
-139.505398273468
 21
263.3269349386418
 31
0.0
  0
LINE
  5
34A
330
1F
100
AcDbEntity
  8
0
  6
Continuous
 62
     2
100
AcDbLine
 10
-138.9497532844544
 20
263.1583501150334
 30
0.0
 11
-139.215678691864
 21
263.2840491583073
 31
0.0
  0
LINE
  5
34B
330
1F
100
AcDbEntity
  8
0
  6
Continuous
 62
     2
100
AcDbLine
 10
-138.797943353653
 20
263.0336657812321
 30
0.0
 11
-138.9497532844544
 21
263.1583501150334
 31
0.0
  0
LINE
  5
34C
330
1F
100
AcDbEntity
  8
0
  6
Continuous
 62
     2
100
AcDbLine
 10
-138.6735775470734
 20
262.8818951894962
 30
0.0
 11
-138.797943353653
 21
263.0336657812321
 31
0.0
  0
LINE
  5
34D
330
1F
100
AcDbEntity
  8
0
  6
Continuous
 62
     2
100
AcDbLine
 10
-138.5483009815216
 20
262.6163541128361
 30
0.0
 11
-138.6735775470734
 21
262.8818951894962
 31
0.0
  0
LINE
  5
34E
330
1F
100
AcDbEntity
  8
0
  6
Continuous
 62
     2
100
AcDbLine
 10
-138.5055525302887
 20
262.3270884802066
 30
0.0
 11
-138.5483009815216
 21
262.6163541128361
 31
0.0
  0
LINE
  5
34F
330
1F
100
AcDbEntity
  8
0
  6
Continuous
 62
     2
100
AcDbLine
 10
-138.5055525302887
 20
260.3769351293765
 30
0.0
 11
-138.5055525302887
 21
262.3270884802066
 31
0.0
  0
LINE
  5
350
330
1F
100
AcDbEntity
  8
0
  6
Continuous
 62
     2
100
AcDbLine
 10
-140.0499997138977
 20
266.3324881841862
 30
0.0
 11
-140.0499997138977
 21
264.3324881841862
 31
0.0
  0
LINE
  5
351
330
1F
100
AcDbEntity
  8
0
  6
Continuous
 62
     7
100
AcDbLine
 10
-139.5499997138977
 20
266.3324881841862
 30
0.0
 11
-139.5499997138977
 21
264.3324881841862
 31
0.0
  0
LINE
  5
352
330
1F
100
AcDbEntity
  8
0
  6
Continuous
 62
     2
100
AcDbLine
 10
-132.0944464206696
 20
260.3769351293765
 30
0.0
 11
-138.5055525302887
 21
260.3769351293765
 31
0.0
  0
LINE
  5
353
330
1F
100
AcDbEntity
  8
0
  6
Continuous
 62
     2
100
AcDbLine
 10
-131.5945227146149
 20
259.8770114233219
 30
0.0
 11
-139.005476474762
 21
259.8770114233219
 31
0.0
  0
LINE
  5
354
330
1F
100
AcDbEntity
  8
0
  6
Continuous
 62
     7
100
AcDbLine
 10
-139.2499995231628
 20
259.6324883749211
 30
0.0
 11
-131.3500006198883
 21
259.6324883749211
 31
0.0
  0
LINE
  5
355
330
1F
100
AcDbEntity
  8
0
  6
Continuous
 62
     7
100
AcDbLine
 10
-139.2499995231628
 20
259.6324883749211
 30
0.0
 11
-139.005476474762
 21
259.8770114233219
 31
0.0
  0
LINE
  5
356
330
1F
100
AcDbEntity
  8
0
  6
Continuous
 62
     2
100
AcDbLine
 10
-139.005476474762
 20
259.8770114233219
 30
0.0
 11
-139.005476474762
 21
262.3270875265324
 31
0.0
  0
LINE
  5
357
330
1F
100
AcDbEntity
  8
0
  6
Continuous
 62
     7
100
AcDbLine
 10
-139.2499995231628
 20
262.0825644781314
 30
0.0
 11
-139.2499995231628
 21
259.6324883749211
 31
0.0
  0
LINE
  5
358
330
1F
100
AcDbEntity
  8
0
  6
Continuous
 62
     2
100
AcDbLine
 10
-145.5503807067871
 20
262.5824881841862
 30
0.0
 11
-145.794903755188
 21
262.8270121862614
 31
0.0
  0
LINE
  5
359
330
1F
100
AcDbEntity
  8
0
  6
Continuous
 62
     2
100
AcDbLine
 10
-148.7944469451904
 20
260.3273927023136
 30
0.0
 11
-148.2945232391357
 21
260.3273927023136
 31
0.0
  0
LINE
  5
35A
330
1F
100
AcDbEntity
  8
0
  6
Continuous
 62
     2
100
AcDbLine
 10
-145.794903755188
 20
262.8270121862614
 30
0.0
 11
-145.794903755188
 21
263.3269358923161
 31
0.0
  0
LINE
  5
35B
330
1F
100
AcDbEntity
  8
0
  6
Continuous
 62
     7
100
AcDbLine
 10
-145.75
 20
266.3324881841862
 30
0.0
 11
-145.25
 21
266.3324881841862
 31
0.0
  0
LINE
  5
35C
330
1F
100
AcDbEntity
  8
0
  6
Continuous
 62
     7
100
AcDbLine
 10
-145.75
 20
264.3324881841862
 30
0.0
 11
-145.75
 21
266.3324881841862
 31
0.0
  0
LINE
  5
35D
330
1F
100
AcDbEntity
  8
0
  6
Continuous
 62
     2
100
AcDbLine
 10
-145.25
 20
264.3324881841862
 30
0.0
 11
-145.25
 21
266.3324881841862
 31
0.0
  0
LINE
  5
35E
330
1F
100
AcDbEntity
  8
0
  6
Continuous
 62
     7
100
AcDbLine
 10
-146.4055147171021
 20
262.4316970159732
 30
0.0
 11
-145.5503807067871
 21
262.5824881841862
 31
0.0
  0
LINE
  5
35F
330
1F
100
AcDbEntity
  8
0
  6
Continuous
 62
     7
100
AcDbLine
 10
-147.157416343689
 20
261.9975100805484
 30
0.0
 11
-146.4055147171021
 21
262.4316970159732
 31
0.0
  0
LINE
  5
360
330
1F
100
AcDbEntity
  8
0
  6
Continuous
 62
     7
100
AcDbLine
 10
-147.7153930664063
 20
261.3322984029971
 30
0.0
 11
-147.157416343689
 21
261.9975100805484
 31
0.0
  0
LINE
  5
361
330
1F
100
AcDbEntity
  8
0
  6
Continuous
 62
     7
100
AcDbLine
 10
-148.0121450424194
 20
260.5162946035587
 30
0.0
 11
-147.7153930664063
 21
261.3322984029971
 31
0.0
  0
LINE
  5
362
330
1F
100
AcDbEntity
  8
0
  6
Continuous
 62
     7
100
AcDbLine
 10
-148.0500001907349
 20
260.0828696539127
 30
0.0
 11
-148.0121450424194
 21
260.5162946035587
 31
0.0
  0
LINE
  5
363
330
1F
100
AcDbEntity
  8
0
  6
Continuous
 62
     2
100
AcDbLine
 10
-148.186863899231
 20
261.0533210088931
 30
0.0
 11
-148.2945232391357
 21
260.3273927023136
 31
0.0
  0
LINE
  5
364
330
1F
100
AcDbEntity
  8
0
  6
Continuous
 62
     2
100
AcDbLine
 10
-147.8730611801147
 20
261.7166549017155
 30
0.0
 11
-148.186863899231
 21
261.0533210088931
 31
0.0
  0
LINE
  5
365
330
1F
100
AcDbEntity
  8
0
  6
Continuous
 62
     2
100
AcDbLine
 10
-147.5620841979981
 20
262.0954257299626
 30
0.0
 11
-147.8730611801147
 21
261.7166549017155
 31
0.0
  0
LINE
  5
366
330
1F
100
AcDbEntity
  8
0
  6
Continuous
 62
     2
100
AcDbLine
 10
-147.1836490631104
 20
262.4058963110172
 30
0.0
 11
-147.5620841979981
 21
262.0954257299626
 31
0.0
  0
LINE
  5
367
330
1F
100
AcDbEntity
  8
0
  6
Continuous
 62
     2
100
AcDbLine
 10
-146.5206804275513
 20
262.7193986227238
 30
0.0
 11
-147.1836490631104
 21
262.4058963110172
 31
0.0
  0
LINE
  5
368
330
1F
100
AcDbEntity
  8
0
  6
Continuous
 62
     2
100
AcDbLine
 10
-145.794903755188
 20
262.8270121862614
 30
0.0
 11
-146.5206804275513
 21
262.7193986227238
 31
0.0
  0
LINE
  5
369
330
1F
100
AcDbEntity
  8
0
  6
Continuous
 62
     2
100
AcDbLine
 10
-148.6652116775513
 20
261.1984616567813
 30
0.0
 11
-148.7944469451904
 21
260.3273927023136
 31
0.0
  0
LINE
  5
36A
330
1F
100
AcDbEntity
  8
0
  6
Continuous
 62
     2
100
AcDbLine
 10
-148.2886228561401
 20
261.9944363882266
 30
0.0
 11
-148.6652116775513
 21
261.1984616567813
 31
0.0
  0
LINE
  5
36B
330
1F
100
AcDbEntity
  8
0
  6
Continuous
 62
     2
100
AcDbLine
 10
-147.9154453277588
 20
262.4489566137515
 30
0.0
 11
-148.2886228561401
 21
261.9944363882266
 31
0.0
  0
LINE
  5
36C
330
1F
100
AcDbEntity
  8
0
  6
Continuous
 62
     2
100
AcDbLine
 10
-147.4613265991211
 20
262.821525697919
 30
0.0
 11
-147.9154453277588
 21
262.4489566137515
 31
0.0
  0
LINE
  5
36D
330
1F
100
AcDbEntity
  8
0
  6
Continuous
 62
     2
100
AcDbLine
 10
-146.6657905578613
 20
263.1977549841129
 30
0.0
 11
-147.4613265991211
 21
262.821525697919
 31
0.0
  0
LINE
  5
36E
330
1F
100
AcDbEntity
  8
0
  6
Continuous
 62
     2
100
AcDbLine
 10
-145.794903755188
 20
263.3269358923161
 30
0.0
 11
-146.6657905578613
 21
263.1977549841129
 31
0.0
  0
LINE
  5
36F
330
1F
100
AcDbEntity
  8
0
  6
Continuous
 62
     7
100
AcDbLine
 10
-140.0499997138977
 20
266.3324881841862
 30
0.0
 11
-145.25
 21
266.3324881841862
 31
0.0
  0
LINE
  5
370
330
1F
100
AcDbEntity
  8
0
  6
Continuous
 62
     7
100
AcDbLine
 10
-145.5503807067871
 20
262.5824881841862
 30
0.0
 11
-139.7499241828919
 21
262.5824881841862
 31
0.0
  0
LINE
  5
371
330
1F
100
AcDbEntity
  8
0
  6
Continuous
 62
     2
100
AcDbLine
 10
-139.5054001808167
 20
262.8270121862614
 30
0.0
 11
-145.794903755188
 21
262.8270121862614
 31
0.0
  0
LINE
  5
372
330
1F
100
AcDbEntity
  8
0
  6
Continuous
 62
     2
100
AcDbLine
 10
-139.505398273468
 20
263.3269349386418
 30
0.0
 11
-145.794903755188
 21
263.3269358923161
 31
0.0
  0
LINE
  5
373
330
1F
100
AcDbEntity
  8
0
  6
Continuous
 62
     2
100
AcDbLine
 10
-148.0500001907349
 20
260.0828696539127
 30
0.0
 11
-148.2945232391357
 21
260.3273927023136
 31
0.0
  0
LINE
  5
374
330
1F
100
AcDbEntity
  8
0
  6
Continuous
 62
     7
100
AcDbLine
 10
-148.7944469451904
 20
254.6880418112003
 30
0.0
 11
-148.2945232391357
 21
255.187965517255
 31
0.0
  0
LINE
  5
375
330
1F
100
AcDbEntity
  8
0
  6
Continuous
 62
     7
100
AcDbLine
 10
-146.444522857666
 20
255.187965517255
 30
0.0
 11
-146.9444465637207
 21
254.6880418112003
 31
0.0
  0
LINE
  5
376
330
1F
100
AcDbEntity
  8
0
  6
Continuous
 62
     2
100
AcDbLine
 10
-148.7944469451904
 20
254.6880418112003
 30
0.0
 11
-146.9444465637207
 21
254.6880418112003
 31
0.0
  0
LINE
  5
377
330
1F
100
AcDbEntity
  8
0
  6
Continuous
 62
     2
100
AcDbLine
 10
-148.2945232391357
 20
255.187965517255
 30
0.0
 11
-146.444522857666
 21
255.187965517255
 31
0.0
  0
LINE
  5
378
330
1F
100
AcDbEntity
  8
0
  6
Continuous
 62
     7
100
AcDbLine
 10
-146.1999998092651
 20
255.4324885656559
 30
0.0
 11
-148.0500001907349
 21
255.4324885656559
 31
0.0
  0
LINE
  5
379
330
1F
100
AcDbEntity
  8
0
  6
Continuous
 62
     7
100
AcDbLine
 10
-148.0500001907349
 20
252.8324888994419
 30
0.0
 11
-150.0
 21
252.8324888994419
 31
0.0
  0
LINE
  5
37A
330
1F
100
AcDbEntity
  8
0
  6
Continuous
 62
     7
100
AcDbLine
 10
-148.0500001907349
 20
255.4324885656559
 30
0.0
 11
-148.0500001907349
 21
260.0828696539127
 31
0.0
  0
LINE
  5
37B
330
1F
100
AcDbEntity
  8
0
  6
Continuous
 62
     2
100
AcDbLine
 10
-148.2945232391357
 20
260.3273927023136
 30
0.0
 11
-148.2945232391357
 21
255.187965517255
 31
0.0
  0
LINE
  5
37C
330
1F
100
AcDbEntity
  8
0
  6
Continuous
 62
     2
100
AcDbLine
 10
-148.7944469451904
 20
260.3273927023136
 30
0.0
 11
-148.7944469451904
 21
254.6880418112003
 31
0.0
  0
LINE
  5
37D
330
1F
100
AcDbEntity
  8
0
  6
Continuous
 62
     7
100
AcDbLine
 10
-148.0500001907349
 20
245.8324888994419
 30
0.0
 11
-148.0500001907349
 21
252.8324888994419
 31
0.0
  0
LINE
  5
37E
330
1F
100
AcDbEntity
  8
0
  6
Continuous
 62
     7
100
AcDbLine
 10
-150.0
 20
252.8324888994419
 30
0.0
 11
-150.0
 21
245.8324888994419
 31
0.0
  0
LINE
  5
37F
330
1F
100
AcDbEntity
  8
0
  6
Continuous
 62
     7
100
AcDbLine
 10
-146.1999998092651
 20
255.4324885656559
 30
0.0
 11
-146.444522857666
 21
255.187965517255
 31
0.0
  0
LINE
  5
380
330
1F
100
AcDbEntity
  8
0
  6
Continuous
 62
     7
100
AcDbLine
 10
-148.2945232391357
 20
255.187965517255
 30
0.0
 11
-148.0500001907349
 21
255.4324885656559
 31
0.0
  0
LINE
  5
381
330
1F
100
AcDbEntity
  8
0
  6
Continuous
 62
     2
100
AcDbLine
 10
-146.9444465637207
 20
254.6880418112003
 30
0.0
 11
-146.9444465637207
 21
243.9769355108463
 31
0.0
  0
LINE
  5
382
330
1F
100
AcDbEntity
  8
0
  6
Continuous
 62
     7
100
AcDbLine
 10
-150.0
 20
252.8324888994419
 30
0.0
 11
-150.0
 21
264.3324881841862
 31
0.0
  0
LINE
  5
383
330
1F
100
AcDbEntity
  8
0
  6
Continuous
 62
     2
100
AcDbLine
 10
-146.444522857666
 20
255.187965517255
 30
0.0
 11
-146.444522857666
 21
243.4770118047917
 31
0.0
  0
LINE
  5
384
330
1F
100
AcDbEntity
  8
0
  6
Continuous
 62
     7
100
AcDbLine
 10
-150.0
 20
264.3324881841862
 30
0.0
 11
-137.2999994754791
 21
264.3324881841862
 31
0.0
  0
LINE
  5
385
330
1F
100
AcDbEntity
  8
0
  6
Continuous
 62
     7
100
AcDbLine
 10
-121.8055515289307
 20
243.9769355108463
 30
0.0
 11
-122.305477142334
 21
243.4770118047917
 31
0.0
  0
LINE
  5
386
330
1F
100
AcDbEntity
  8
0
  6
Continuous
 62
     7
100
AcDbLine
 10
-124.1554756164551
 20
243.4770118047917
 30
0.0
 11
-123.6555519104004
 21
243.9769355108463
 31
0.0
  0
LINE
  5
387
330
1F
100
AcDbEntity
  8
0
  6
Continuous
 62
     2
100
AcDbLine
 10
-121.8055515289307
 20
243.9769355108463
 30
0.0
 11
-123.6555519104004
 21
243.9769355108463
 31
0.0
  0
LINE
  5
388
330
1F
100
AcDbEntity
  8
0
  6
Continuous
 62
     2
100
AcDbLine
 10
-122.305477142334
 20
243.4770118047917
 30
0.0
 11
-124.1554756164551
 21
243.4770118047917
 31
0.0
  0
LINE
  5
389
330
1F
100
AcDbEntity
  8
0
  6
Continuous
 62
     7
100
AcDbLine
 10
-124.3999996185303
 20
243.2324878027165
 30
0.0
 11
-122.5499992370606
 21
243.2324878027165
 31
0.0
  0
LINE
  5
38A
330
1F
100
AcDbEntity
  8
0
  6
Continuous
 62
     7
100
AcDbLine
 10
-122.5499992370606
 20
245.8324888994419
 30
0.0
 11
-120.6000003814697
 21
245.8324888994419
 31
0.0
  0
LINE
  5
38B
330
1F
100
AcDbEntity
  8
0
  6
Continuous
 62
     7
100
AcDbLine
 10
-122.5499992370606
 20
243.2324878027165
 30
0.0
 11
-122.5499992370606
 21
238.5821086218083
 31
0.0
  0
LINE
  5
38C
330
1F
100
AcDbEntity
  8
0
  6
Continuous
 62
     2
100
AcDbLine
 10
-122.305477142334
 20
238.3375846197331
 30
0.0
 11
-122.305477142334
 21
243.4770118047917
 31
0.0
  0
LINE
  5
38D
330
1F
100
AcDbEntity
  8
0
  6
Continuous
 62
     2
100
AcDbLine
 10
-121.8055515289307
 20
238.3375846197331
 30
0.0
 11
-121.8055515289307
 21
243.9769355108463
 31
0.0
  0
LINE
  5
38E
330
1F
100
AcDbEntity
  8
0
  6
Continuous
 62
     7
100
AcDbLine
 10
-124.3999996185303
 20
243.2324878027165
 30
0.0
 11
-124.1554756164551
 21
243.4770118047917
 31
0.0
  0
LINE
  5
38F
330
1F
100
AcDbEntity
  8
0
  6
Continuous
 62
     7
100
AcDbLine
 10
-122.305477142334
 20
243.4770118047917
 30
0.0
 11
-122.5499992370606
 21
243.2324878027165
 31
0.0
  0
LINE
  5
390
330
1F
100
AcDbEntity
  8
0
  6
Continuous
 62
     2
100
AcDbLine
 10
-122.4131355285644
 20
237.6116572668278
 30
0.0
 11
-122.305477142334
 21
238.3375846197331
 31
0.0
  0
LINE
  5
391
330
1F
100
AcDbEntity
  8
0
  6
Continuous
 62
     2
100
AcDbLine
 10
-121.9347877502441
 20
237.4665156652653
 30
0.0
 11
-121.8055515289307
 21
238.3375846197331
 31
0.0
  0
LINE
  5
392
330
1F
100
AcDbEntity
  8
0
  6
Continuous
 62
     2
100
AcDbLine
 10
-122.3113765716553
 20
236.67054093382
 30
0.0
 11
-121.9347877502441
 21
237.4665156652653
 31
0.0
  0
LINE
  5
393
330
1F
100
AcDbEntity
  8
0
  6
Continuous
 62
     2
100
AcDbLine
 10
-122.6845550537109
 20
236.2160197546208
 30
0.0
 11
-122.3113765716553
 21
236.67054093382
 31
0.0
  0
LINE
  5
394
330
1F
100
AcDbEntity
  8
0
  6
Continuous
 62
     2
100
AcDbLine
 10
-123.138671875
 20
235.8434516241276
 30
0.0
 11
-122.6845550537109
 21
236.2160197546208
 31
0.0
  0
LINE
  5
395
330
1F
100
AcDbEntity
  8
0
  6
Continuous
 62
     2
100
AcDbLine
 10
-123.9342079162598
 20
235.4672213842594
 30
0.0
 11
-123.138671875
 21
235.8434516241276
 31
0.0
  0
LINE
  5
396
330
1F
100
AcDbEntity
  8
0
  6
Continuous
 62
     2
100
AcDbLine
 10
-124.8050956726074
 20
235.3380423834049
 30
0.0
 11
-123.9342079162598
 21
235.4672213842594
 31
0.0
  0
LINE
  5
397
330
1F
100
AcDbEntity
  8
0
  6
Continuous
 62
     2
100
AcDbLine
 10
-122.305477142334
 20
238.3375846197331
 30
0.0
 11
-122.5499992370606
 21
238.5821086218083
 31
0.0
  0
LINE
  5
398
330
1F
100
AcDbEntity
  8
0
  6
Continuous
 62
     2
100
AcDbLine
 10
-121.8055515289307
 20
238.3375846197331
 30
0.0
 11
-122.305477142334
 21
238.3375846197331
 31
0.0
  0
LINE
  5
399
330
1F
100
AcDbEntity
  8
0
  6
Continuous
 62
     2
100
AcDbLine
 10
-124.8050956726074
 20
235.8379660894596
 30
0.0
 11
-124.8050956726074
 21
235.3380423834049
 31
0.0
  0
LINE
  5
39A
330
1F
100
AcDbEntity
  8
0
  6
Continuous
 62
     7
100
AcDbLine
 10
-123.8500003814697
 20
232.3324881841862
 30
0.0
 11
-124.3500003814697
 21
232.3324881841862
 31
0.0
  0
LINE
  5
39B
330
1F
100
AcDbEntity
  8
0
  6
Continuous
 62
     7
100
AcDbLine
 10
-119.6999988555908
 20
238.9964267065251
 30
0.0
 11
-120.6000003814697
 21
238.9964267065251
 31
0.0
  0
LINE
  5
39C
330
1F
100
AcDbEntity
  8
0
  6
Continuous
 62
     7
100
AcDbLine
 10
-120.6000003814697
 20
237.9964267065251
 30
0.0
 11
-119.6999988555908
 21
237.9964267065251
 31
0.0
  0
LINE
  5
39D
330
1F
100
AcDbEntity
  8
0
  6
Continuous
 62
     7
100
AcDbLine
 10
-119.6999988555908
 20
240.668551569196
 30
0.0
 11
-120.6000003814697
 21
240.668551569196
 31
0.0
  0
LINE
  5
39E
330
1F
100
AcDbEntity
  8
0
  6
Continuous
 62
     7
100
AcDbLine
 10
-120.6000003814697
 20
239.668551569196
 30
0.0
 11
-119.6999988555908
 21
239.668551569196
 31
0.0
  0
LINE
  5
39F
330
1F
100
AcDbEntity
  8
0
  6
Continuous
 62
     7
100
AcDbLine
 10
-119.6999988555908
 20
237.9964267065251
 30
0.0
 11
-119.6999988555908
 21
238.9964267065251
 31
0.0
  0
LINE
  5
3A0
330
1F
100
AcDbEntity
  8
0
  6
Continuous
 62
     7
100
AcDbLine
 10
-119.6999988555908
 20
239.668551569196
 30
0.0
 11
-119.6999988555908
 21
240.668551569196
 31
0.0
  0
LINE
  5
3A1
330
1F
100
AcDbEntity
  8
0
  6
Continuous
 62
     2
100
AcDbLine
 10
-124.3500003814697
 20
234.3324881841862
 30
0.0
 11
-124.3500003814697
 21
232.3324881841862
 31
0.0
  0
LINE
  5
3A2
330
1F
100
AcDbEntity
  8
0
  6
Continuous
 62
     2
100
AcDbLine
 10
-124.8050956726074
 20
235.8379660894596
 30
0.0
 11
-125.049617767334
 21
236.0824881841862
 31
0.0
  0
LINE
  5
3A3
330
1F
100
AcDbEntity
  8
0
  6
Continuous
 62
     7
100
AcDbLine
 10
-123.8500003814697
 20
234.3324881841862
 30
0.0
 11
-123.8500003814697
 21
232.3324881841862
 31
0.0
  0
LINE
  5
3A4
330
1F
100
AcDbEntity
  8
0
  6
Continuous
 62
     2
100
AcDbLine
 10
-122.7269382476807
 20
236.9483214666569
 30
0.0
 11
-122.4131355285644
 21
237.6116572668278
 31
0.0
  0
LINE
  5
3A5
330
1F
100
AcDbEntity
  8
0
  6
Continuous
 62
     2
100
AcDbLine
 10
-123.0379142761231
 20
236.5695525457585
 30
0.0
 11
-122.7269382476807
 21
236.9483214666569
 31
0.0
  0
LINE
  5
3A6
330
1F
100
AcDbEntity
  8
0
  6
Continuous
 62
     2
100
AcDbLine
 10
-123.4163513183594
 20
236.2590819647038
 30
0.0
 11
-123.0379142761231
 21
236.5695525457585
 31
0.0
  0
LINE
  5
3A7
330
1F
100
AcDbEntity
  8
0
  6
Continuous
 62
     2
100
AcDbLine
 10
-124.0793190002441
 20
235.9455786993229
 30
0.0
 11
-123.4163513183594
 21
236.2590819647038
 31
0.0
  0
LINE
  5
3A8
330
1F
100
AcDbEntity
  8
0
  6
Continuous
 62
     2
100
AcDbLine
 10
-124.8050956726074
 20
235.8379660894596
 30
0.0
 11
-124.0793190002441
 21
235.9455786993229
 31
0.0
  0
LINE
  5
3A9
330
1F
100
AcDbEntity
  8
0
  6
Continuous
 62
     7
100
AcDbLine
 10
-124.6161937713623
 20
236.1203433325016
 30
0.0
 11
-125.049617767334
 21
236.0824881841862
 31
0.0
  0
LINE
  5
3AA
330
1F
100
AcDbEntity
  8
0
  6
Continuous
 62
     7
100
AcDbLine
 10
-123.8001899719238
 20
236.4170962621891
 30
0.0
 11
-124.6161937713623
 21
236.1203433325016
 31
0.0
  0
LINE
  5
3AB
330
1F
100
AcDbEntity
  8
0
  6
Continuous
 62
     7
100
AcDbLine
 10
-123.1349773406982
 20
236.9750720312321
 30
0.0
 11
-123.8001899719238
 21
236.4170962621891
 31
0.0
  0
LINE
  5
3AC
330
1F
100
AcDbEntity
  8
0
  6
Continuous
 62
     7
100
AcDbLine
 10
-122.7007904052734
 20
237.726973657819
 30
0.0
 11
-123.1349773406982
 21
236.9750720312321
 31
0.0
  0
LINE
  5
3AD
330
1F
100
AcDbEntity
  8
0
  6
Continuous
 62
     7
100
AcDbLine
 10
-122.5499992370606
 20
238.5821086218083
 30
0.0
 11
-122.7007904052734
 21
237.726973657819
 31
0.0
  0
LINE
  5
3AE
330
1F
100
AcDbEntity
  8
0
  6
Continuous
 62
     7
100
AcDbLine
 10
-132.8872759342194
 20
239.3704978277409
 30
0.0
 11
-132.8872759342194
 21
236.5824118902409
 31
0.0
  0
LINE
  5
3AF
330
1F
100
AcDbEntity
  8
0
  6
Continuous
 62
     2
100
AcDbLine
 10
-133.6317217350006
 20
236.3378897955143
 30
0.0
 11
-133.6317217350006
 21
240.2007666876042
 31
0.0
  0
LINE
  5
3B0
330
1F
100
AcDbEntity
  8
0
  6
Continuous
 62
     2
100
AcDbLine
 10
-133.1317980289459
 20
236.3378897955143
 30
0.0
 11
-133.1317980289459
 21
240.7006903936588
 31
0.0
  0
LINE
  5
3B1
330
1F
100
AcDbEntity
  8
0
  6
Continuous
 62
     2
100
AcDbLine
 10
-132.9215967655182
 20
235.3809272100651
 30
0.0
 11
-132.6318762302399
 21
235.3380423834049
 31
0.0
  0
LINE
  5
3B2
330
1F
100
AcDbEntity
  8
0
  6
Continuous
 62
     2
100
AcDbLine
 10
-133.1875212192535
 20
235.5066272070133
 30
0.0
 11
-132.9215967655182
 21
235.3809272100651
 31
0.0
  0
LINE
  5
3B3
330
1F
100
AcDbEntity
  8
0
  6
Continuous
 62
     2
100
AcDbLine
 10
-133.3393309116364
 20
235.6313124944889
 30
0.0
 11
-133.1875212192535
 21
235.5066272070133
 31
0.0
  0
LINE
  5
3B4
330
1F
100
AcDbEntity
  8
0
  6
Continuous
 62
     2
100
AcDbLine
 10
-133.4636976718903
 20
235.7830821325504
 30
0.0
 11
-133.3393309116364
 21
235.6313124944889
 31
0.0
  0
LINE
  5
3B5
330
1F
100
AcDbEntity
  8
0
  6
Continuous
 62
     2
100
AcDbLine
 10
-133.5889732837677
 20
236.0486232092106
 30
0.0
 11
-133.4636976718903
 21
235.7830821325504
 31
0.0
  0
LINE
  5
3B6
330
1F
100
AcDbEntity
  8
0
  6
Continuous
 62
     2
100
AcDbLine
 10
-133.6317217350006
 20
236.3378897955143
 30
0.0
 11
-133.5889732837677
 21
236.0486232092106
 31
0.0
  0
LINE
  5
3B7
330
1F
100
AcDbEntity
  8
0
  6
Continuous
 62
     7
100
AcDbLine
 10
-132.0499994754791
 20
232.3324881841862
 30
0.0
 11
-132.0499994754791
 21
234.3324881841862
 31
0.0
  0
LINE
  5
3B8
330
1F
100
AcDbEntity
  8
0
  6
Continuous
 62
     2
100
AcDbLine
 10
-131.5499994754791
 20
232.3324881841862
 30
0.0
 11
-131.5499994754791
 21
234.3324881841862
 31
0.0
  0
LINE
  5
3B9
330
1F
100
AcDbEntity
  8
0
  6
Continuous
 62
     2
100
AcDbLine
 10
-132.8872759342194
 20
236.5824118902409
 30
0.0
 11
-133.1317980289459
 21
236.3378897955143
 31
0.0
  0
LINE
  5
3BA
330
1F
100
AcDbEntity
  8
0
  6
Continuous
 62
     2
100
AcDbLine
 10
-132.387350320816
 20
236.0824881841862
 30
0.0
 11
-132.6318743228912
 21
235.8379660894596
 31
0.0
  0
LINE
  5
3BB
330
1F
100
AcDbEntity
  8
0
  6
Continuous
 62
     2
100
AcDbLine
 10
-132.6318762302399
 20
235.3380423834049
 30
0.0
 11
-132.6318743228912
 21
235.8379660894596
 31
0.0
  0
LINE
  5
3BC
330
1F
100
AcDbEntity
  8
0
  6
Continuous
 62
     2
100
AcDbLine
 10
-133.1317980289459
 20
236.3378897955143
 30
0.0
 11
-133.6317217350006
 21
236.3378897955143
 31
0.0
  0
LINE
  5
3BD
330
1F
100
AcDbEntity
  8
0
  6
Continuous
 62
     7
100
AcDbLine
 10
-132.8571169376373
 20
236.4113856603825
 30
0.0
 11
-132.8872759342194
 21
236.5824118902409
 31
0.0
  0
LINE
  5
3BE
330
1F
100
AcDbEntity
  8
0
  6
Continuous
 62
     7
100
AcDbLine
 10
-132.7702791690826
 20
236.2610045721256
 30
0.0
 11
-132.8571169376373
 21
236.4113856603825
 31
0.0
  0
LINE
  5
3BF
330
1F
100
AcDbEntity
  8
0
  6
Continuous
 62
     7
100
AcDbLine
 10
-132.6372377872467
 20
236.149409418317
 30
0.0
 11
-132.7702791690826
 21
236.2610045721256
 31
0.0
  0
LINE
  5
3C0
330
1F
100
AcDbEntity
  8
0
  6
Continuous
 62
     7
100
AcDbLine
 10
-132.4740355014801
 20
236.0900603582585
 30
0.0
 11
-132.6372377872467
 21
236.149409418317
 31
0.0
  0
LINE
  5
3C1
330
1F
100
AcDbEntity
  8
0
  6
Continuous
 62
     7
100
AcDbLine
 10
-132.387350320816
 20
236.0824881841862
 30
0.0
 11
-132.4740355014801
 21
236.0900603582585
 31
0.0
  0
LINE
  5
3C2
330
1F
100
AcDbEntity
  8
0
  6
Continuous
 62
     2
100
AcDbLine
 10
-132.7767736911774
 20
235.859370355817
 30
0.0
 11
-132.6318743228912
 21
235.8379660894596
 31
0.0
  0
LINE
  5
3C3
330
1F
100
AcDbEntity
  8
0
  6
Continuous
 62
     2
100
AcDbLine
 10
-132.9097559452057
 20
235.9221984197819
 30
0.0
 11
-132.7767736911774
 21
235.859370355817
 31
0.0
  0
LINE
  5
3C4
330
1F
100
AcDbEntity
  8
0
  6
Continuous
 62
     2
100
AcDbLine
 10
-132.985666513443
 20
235.9845382024967
 30
0.0
 11
-132.9097559452057
 21
235.9221984197819
 31
0.0
  0
LINE
  5
3C5
330
1F
100
AcDbEntity
  8
0
  6
Continuous
 62
     2
100
AcDbLine
 10
-133.0478441715241
 20
236.0604258825504
 30
0.0
 11
-132.985666513443
 21
235.9845382024967
 31
0.0
  0
LINE
  5
3C6
330
1F
100
AcDbEntity
  8
0
  6
Continuous
 62
     2
100
AcDbLine
 10
-133.1104624271393
 20
236.1932212164127
 30
0.0
 11
-133.0478441715241
 21
236.0604258825504
 31
0.0
  0
LINE
  5
3C7
330
1F
100
AcDbEntity
  8
0
  6
Continuous
 62
     2
100
AcDbLine
 10
-133.1317980289459
 20
236.3378897955143
 30
0.0
 11
-133.1104624271393
 21
236.1932212164127
 31
0.0
  0
LINE
  5
3C8
330
1F
100
AcDbEntity
  8
0
  6
Continuous
 62
     7
100
AcDbLine
 10
-132.0499994754791
 20
232.3324881841862
 30
0.0
 11
-131.5499994754791
 21
232.3324881841862
 31
0.0
  0
LINE
  5
3C9
330
1F
100
AcDbEntity
  8
0
  6
Continuous
 62
     7
100
AcDbLine
 10
-132.8834478855133
 20
239.7977267553532
 30
0.0
 11
-132.8785479068756
 21
239.8879634191715
 31
0.0
  0
LINE
  5
3CA
330
1F
100
AcDbEntity
  8
0
  6
Continuous
 62
     7
100
AcDbLine
 10
-132.8858358860016
 20
239.6541377355778
 30
0.0
 11
-132.8834478855133
 21
239.7977267553532
 31
0.0
  0
LINE
  5
3CB
330
1F
100
AcDbEntity
  8
0
  6
Continuous
 62
     7
100
AcDbLine
 10
-132.8872759342194
 20
239.3704978277409
 30
0.0
 11
-132.8858358860016
 21
239.6541377355778
 31
0.0
  0
LINE
  5
3CC
330
1F
100
AcDbEntity
  8
0
  6
Continuous
 62
     7
100
AcDbLine
 10
-133.6317217350006
 20
240.2007666876042
 30
0.0
 11
-133.1317980289459
 21
240.7006903936588
 31
0.0
  0
LINE
  5
3CD
330
1F
100
AcDbEntity
  8
0
  6
Continuous
 62
     7
100
AcDbLine
 10
-132.7999994754791
 20
239.9107690281603
 30
0.0
 11
-132.7999994754791
 21
241.0324889471256
 31
0.0
  0
LINE
  5
3CE
330
1F
100
AcDbEntity
  8
0
  6
Continuous
 62
     7
100
AcDbLine
 10
-134.2999994754791
 20
234.3324881841862
 30
0.0
 11
-134.2999994754791
 21
239.3324881841862
 31
0.0
  0
LINE
  5
3CF
330
1F
100
AcDbEntity
  8
0
  6
Continuous
 62
     7
100
AcDbLine
 10
-131.5499994754791
 20
232.3324881841862
 30
0.0
 11
-124.3500003814697
 21
232.3324881841862
 31
0.0
  0
LINE
  5
3D0
330
1F
100
AcDbEntity
  8
0
  6
Continuous
 62
     7
100
AcDbLine
 10
-125.049617767334
 20
236.0824881841862
 30
0.0
 11
-132.387350320816
 21
236.0824881841862
 31
0.0
  0
LINE
  5
3D1
330
1F
100
AcDbEntity
  8
0
  6
Continuous
 62
     2
100
AcDbLine
 10
-132.6318743228912
 20
235.8379660894596
 30
0.0
 11
-124.8050956726074
 21
235.8379660894596
 31
0.0
  0
LINE
  5
3D2
330
1F
100
AcDbEntity
  8
0
  6
Continuous
 62
     2
100
AcDbLine
 10
-132.6318762302399
 20
235.3380423834049
 30
0.0
 11
-124.8050956726074
 21
235.3380423834049
 31
0.0
  0
LINE
  5
3D3
330
1F
100
AcDbEntity
  8
0
  6
Continuous
 62
     7
100
AcDbLine
 10
-120.6000003814697
 20
245.8324888994419
 30
0.0
 11
-120.6000003814697
 21
234.3324881841862
 31
0.0
  0
LINE
  5
3D4
330
1F
100
AcDbEntity
  8
0
  6
Continuous
 62
     7
100
AcDbLine
 10
-124.3999996185303
 20
255.4324885656559
 30
0.0
 11
-124.3999996185303
 21
243.2324878027165
 31
0.0
  0
LINE
  5
3D5
330
1F
100
AcDbEntity
  8
0
  6
Continuous
 62
     7
100
AcDbLine
 10
-134.2999994754791
 20
234.3324881841862
 30
0.0
 11
-120.6000003814697
 21
234.3324881841862
 31
0.0
  0
LINE
  5
3D6
330
1F
100
AcDbEntity
  8
0
  6
Continuous
 62
     7
100
AcDbLine
 10
-132.7999994754791
 20
241.0324889471256
 30
0.0
 11
-133.1317980289459
 21
240.7006903936588
 31
0.0
  0
LINE
  5
3D7
330
1F
100
AcDbEntity
  8
0
  6
Continuous
 62
     7
100
AcDbLine
 10
-148.2945232391357
 20
243.4770118047917
 30
0.0
 11
-148.7944469451904
 21
243.9769355108463
 31
0.0
  0
LINE
  5
3D8
330
1F
100
AcDbEntity
  8
0
  6
Continuous
 62
     7
100
AcDbLine
 10
-146.444522857666
 20
243.4770118047917
 30
0.0
 11
-146.9444465637207
 21
243.9769355108463
 31
0.0
  0
LINE
  5
3D9
330
1F
100
AcDbEntity
  8
0
  6
Continuous
 62
     2
100
AcDbLine
 10
-146.9444465637207
 20
243.9769355108463
 30
0.0
 11
-148.7944469451904
 21
243.9769355108463
 31
0.0
  0
LINE
  5
3DA
330
1F
100
AcDbEntity
  8
0
  6
Continuous
 62
     2
100
AcDbLine
 10
-146.444522857666
 20
243.4770118047917
 30
0.0
 11
-148.2945232391357
 21
243.4770118047917
 31
0.0
  0
LINE
  5
3DB
330
1F
100
AcDbEntity
  8
0
  6
Continuous
 62
     7
100
AcDbLine
 10
-148.0500001907349
 20
243.2324878027165
 30
0.0
 11
-146.1999998092651
 21
243.2324878027165
 31
0.0
  0
LINE
  5
3DC
330
1F
100
AcDbEntity
  8
0
  6
Continuous
 62
     7
100
AcDbLine
 10
-150.0
 20
245.8324888994419
 30
0.0
 11
-148.0500001907349
 21
245.8324888994419
 31
0.0
  0
LINE
  5
3DD
330
1F
100
AcDbEntity
  8
0
  6
Continuous
 62
     7
100
AcDbLine
 10
-148.0500001907349
 20
238.5821086218083
 30
0.0
 11
-148.0500001907349
 21
243.2324878027165
 31
0.0
  0
LINE
  5
3DE
330
1F
100
AcDbEntity
  8
0
  6
Continuous
 62
     2
100
AcDbLine
 10
-148.2945232391357
 20
243.4770118047917
 30
0.0
 11
-148.2945232391357
 21
238.3375846197331
 31
0.0
  0
LINE
  5
3DF
330
1F
100
AcDbEntity
  8
0
  6
Continuous
 62
     2
100
AcDbLine
 10
-148.7944469451904
 20
243.9769355108463
 30
0.0
 11
-148.7944469451904
 21
238.3375846197331
 31
0.0
  0
LINE
  5
3E0
330
1F
100
AcDbEntity
  8
0
  6
Continuous
 62
     7
100
AcDbLine
 10
-148.2945232391357
 20
243.4770118047917
 30
0.0
 11
-148.0500001907349
 21
243.2324878027165
 31
0.0
  0
LINE
  5
3E1
330
1F
100
AcDbEntity
  8
0
  6
Continuous
 62
     7
100
AcDbLine
 10
-146.1999998092651
 20
243.2324878027165
 30
0.0
 11
-146.444522857666
 21
243.4770118047917
 31
0.0
  0
LINE
  5
3E2
330
1F
100
AcDbEntity
  8
0
  6
Continuous
 62
     7
100
AcDbLine
 10
-137.7141630649567
 20
239.6540881445133
 30
0.0
 11
-137.7127239704132
 21
239.3704978277409
 31
0.0
  0
LINE
  5
3E3
330
1F
100
AcDbEntity
  8
0
  6
Continuous
 62
     7
100
AcDbLine
 10
-137.7165529727936
 20
239.7977496435368
 30
0.0
 11
-137.7141630649567
 21
239.6540881445133
 31
0.0
  0
LINE
  5
3E4
330
1F
100
AcDbEntity
  8
0
  6
Continuous
 62
     7
100
AcDbLine
 10
-137.7179415225982
 20
239.8375064184391
 30
0.0
 11
-137.7165529727936
 21
239.7977496435368
 31
0.0
  0
LINE
  5
3E5
330
1F
100
AcDbEntity
  8
0
  6
Continuous
 62
     7
100
AcDbLine
 10
-137.721451997757
 20
239.8879634191715
 30
0.0
 11
-137.7179415225982
 21
239.8375064184391
 31
0.0
  0
LINE
  5
3E6
330
1F
100
AcDbEntity
  8
0
  6
Continuous
 62
     7
100
AcDbLine
 10
-137.4682009220123
 20
240.7006903936588
 30
0.0
 11
-136.9682772159576
 21
240.2007666876042
 31
0.0
  0
LINE
  5
3E7
330
1F
100
AcDbEntity
  8
0
  6
Continuous
 62
     7
100
AcDbLine
 10
-137.7999994754791
 20
241.0324889471256
 30
0.0
 11
-137.7999994754791
 21
239.9107687811055
 31
0.0
  0
LINE
  5
3E8
330
1F
100
AcDbEntity
  8
0
  6
Continuous
 62
     7
100
AcDbLine
 10
-136.2999994754791
 20
239.3324881841862
 30
0.0
 11
-134.2999994754791
 21
239.3324881841862
 31
0.0
  0
LINE
  5
3E9
330
1F
100
AcDbEntity
  8
0
  6
Continuous
 62
     7
100
AcDbLine
 10
-137.7127239704132
 20
236.5824118902409
 30
0.0
 11
-137.7127239704132
 21
239.3704978277409
 31
0.0
  0
LINE
  5
3EA
330
1F
100
AcDbEntity
  8
0
  6
Continuous
 62
     2
100
AcDbLine
 10
-133.6317217350006
 20
240.2007666876042
 30
0.0
 11
-136.9682772159576
 21
240.2007666876042
 31
0.0
  0
LINE
  5
3EB
330
1F
100
AcDbEntity
  8
0
  6
Continuous
 62
     2
100
AcDbLine
 10
-136.9682772159576
 20
240.2007666876042
 30
0.0
 11
-136.9682772159576
 21
236.337885980817
 31
0.0
  0
LINE
  5
3EC
330
1F
100
AcDbEntity
  8
0
  6
Continuous
 62
     2
100
AcDbLine
 10
-133.1317980289459
 20
240.7006903936588
 30
0.0
 11
-137.4682009220123
 21
240.7006903936588
 31
0.0
  0
LINE
  5
3ED
330
1F
100
AcDbEntity
  8
0
  6
Continuous
 62
     2
100
AcDbLine
 10
-137.4682009220123
 20
240.7006903936588
 30
0.0
 11
-137.4682009220123
 21
236.3378897955143
 31
0.0
  0
LINE
  5
3EE
330
1F
100
AcDbEntity
  8
0
  6
Continuous
 62
     2
100
AcDbLine
 10
-136.9682772159576
 20
236.337885980817
 30
0.0
 11
-137.4682009220123
 21
236.3378897955143
 31
0.0
  0
LINE
  5
3EF
330
1F
100
AcDbEntity
  8
0
  6
Continuous
 62
     2
100
AcDbLine
 10
-137.968124628067
 20
235.8379660894596
 30
0.0
 11
-137.968124628067
 21
235.3380423834049
 31
0.0
  0
LINE
  5
3F0
330
1F
100
AcDbEntity
  8
0
  6
Continuous
 62
     7
100
AcDbLine
 10
-138.1259634494782
 20
236.0900603582585
 30
0.0
 11
-138.2126486301422
 21
236.0824881841862
 31
0.0
  0
LINE
  5
3F1
330
1F
100
AcDbEntity
  8
0
  6
Continuous
 62
     7
100
AcDbLine
 10
-137.9627621173859
 20
236.149409418317
 30
0.0
 11
-138.1259634494782
 21
236.0900603582585
 31
0.0
  0
LINE
  5
3F2
330
1F
100
AcDbEntity
  8
0
  6
Continuous
 62
     7
100
AcDbLine
 10
-137.8297197818756
 20
236.2610045721256
 30
0.0
 11
-137.9627621173859
 21
236.149409418317
 31
0.0
  0
LINE
  5
3F3
330
1F
100
AcDbEntity
  8
0
  6
Continuous
 62
     7
100
AcDbLine
 10
-137.7428829669952
 20
236.4113856603825
 30
0.0
 11
-137.8297197818756
 21
236.2610045721256
 31
0.0
  0
LINE
  5
3F4
330
1F
100
AcDbEntity
  8
0
  6
Continuous
 62
     7
100
AcDbLine
 10
-137.7127239704132
 20
236.5824118902409
 30
0.0
 11
-137.7428829669952
 21
236.4113856603825
 31
0.0
  0
LINE
  5
3F5
330
1F
100
AcDbEntity
  8
0
  6
Continuous
 62
     2
100
AcDbLine
 10
-137.4896070957184
 20
236.1929904272282
 30
0.0
 11
-137.4682009220123
 21
236.3378897955143
 31
0.0
  0
LINE
  5
3F6
330
1F
100
AcDbEntity
  8
0
  6
Continuous
 62
     2
100
AcDbLine
 10
-137.5524351596832
 20
236.0600062658512
 30
0.0
 11
-137.4896070957184
 21
236.1929904272282
 31
0.0
  0
LINE
  5
3F7
330
1F
100
AcDbEntity
  8
0
  6
Continuous
 62
     2
100
AcDbLine
 10
-137.6147730350494
 20
235.9840976049626
 30
0.0
 11
-137.5524351596832
 21
236.0600062658512
 31
0.0
  0
LINE
  5
3F8
330
1F
100
AcDbEntity
  8
0
  6
Continuous
 62
     2
100
AcDbLine
 10
-137.6906616687775
 20
235.9219199468815
 30
0.0
 11
-137.6147730350494
 21
235.9840976049626
 31
0.0
  0
LINE
  5
3F9
330
1F
100
AcDbEntity
  8
0
  6
Continuous
 62
     2
100
AcDbLine
 10
-137.8234570026398
 20
235.8593016912663
 30
0.0
 11
-137.6906616687775
 21
235.9219199468815
 31
0.0
  0
LINE
  5
3FA
330
1F
100
AcDbEntity
  8
0
  6
Continuous
 62
     2
100
AcDbLine
 10
-137.968124628067
 20
235.8379660894596
 30
0.0
 11
-137.8234570026398
 21
235.8593016912663
 31
0.0
  0
LINE
  5
3FB
330
1F
100
AcDbEntity
  8
0
  6
Continuous
 62
     2
100
AcDbLine
 10
-137.0111639499664
 20
236.0481673528873
 30
0.0
 11
-136.9682772159576
 21
236.337885980817
 31
0.0
  0
LINE
  5
3FC
330
1F
100
AcDbEntity
  8
0
  6
Continuous
 62
     2
100
AcDbLine
 10
-137.136862039566
 20
235.782242899152
 30
0.0
 11
-137.0111639499664
 21
236.0481673528873
 31
0.0
  0
LINE
  5
3FD
330
1F
100
AcDbEntity
  8
0
  6
Continuous
 62
     2
100
AcDbLine
 10
-137.2615473270416
 20
235.6304312994206
 30
0.0
 11
-137.136862039566
 21
235.782242899152
 31
0.0
  0
LINE
  5
3FE
330
1F
100
AcDbEntity
  8
0
  6
Continuous
 62
     2
100
AcDbLine
 10
-137.4133169651032
 20
235.5060664465153
 30
0.0
 11
-137.2615473270416
 21
235.6304312994206
 31
0.0
  0
LINE
  5
3FF
330
1F
100
AcDbEntity
  8
0
  6
Continuous
 62
     2
100
AcDbLine
 10
-137.6788589954376
 20
235.3807898809635
 30
0.0
 11
-137.4133169651032
 21
235.5060664465153
 31
0.0
  0
LINE
  5
400
330
1F
100
AcDbEntity
  8
0
  6
Continuous
 62
     2
100
AcDbLine
 10
-137.968124628067
 20
235.3380423834049
 30
0.0
 11
-137.6788589954376
 21
235.3807898809635
 31
0.0
  0
LINE
  5
401
330
1F
100
AcDbEntity
  8
0
  6
Continuous
 62
     7
100
AcDbLine
 10
-136.2999994754791
 20
234.3324881841862
 30
0.0
 11
-134.2999994754791
 21
234.3324881841862
 31
0.0
  0
LINE
  5
402
330
1F
100
AcDbEntity
  8
0
  6
Continuous
 62
     7
100
AcDbLine
 10
-138.5499994754791
 20
234.3324881841862
 30
0.0
 11
-138.5499994754791
 21
232.3324881841862
 31
0.0
  0
LINE
  5
403
330
1F
100
AcDbEntity
  8
0
  6
Continuous
 62
     2
100
AcDbLine
 10
-137.4682009220123
 20
236.3378897955143
 30
0.0
 11
-137.7127239704132
 21
236.5824118902409
 31
0.0
  0
LINE
  5
404
330
1F
100
AcDbEntity
  8
0
  6
Continuous
 62
     2
100
AcDbLine
 10
-137.968124628067
 20
235.8379660894596
 30
0.0
 11
-138.2126486301422
 21
236.0824881841862
 31
0.0
  0
LINE
  5
405
330
1F
100
AcDbEntity
  8
0
  6
Continuous
 62
     7
100
AcDbLine
 10
-138.5499994754791
 20
232.3324881841862
 30
0.0
 11
-139.0499997138977
 21
232.3324881841862
 31
0.0
  0
LINE
  5
406
330
1F
100
AcDbEntity
  8
0
  6
Continuous
 62
     2
100
AcDbLine
 10
-139.0499997138977
 20
234.3324881841862
 30
0.0
 11
-139.0499997138977
 21
232.3324881841862
 31
0.0
  0
LINE
  5
407
330
1F
100
AcDbEntity
  8
0
  6
Continuous
 62
     7
100
AcDbLine
 10
-136.2999994754791
 20
234.3324881841862
 30
0.0
 11
-136.2999994754791
 21
239.3324881841862
 31
0.0
  0
LINE
  5
408
330
1F
100
AcDbEntity
  8
0
  6
Continuous
 62
     7
100
AcDbLine
 10
-145.5503807067871
 20
236.0824881841862
 30
0.0
 11
-138.2126486301422
 21
236.0824881841862
 31
0.0
  0
LINE
  5
409
330
1F
100
AcDbEntity
  8
0
  6
Continuous
 62
     2
100
AcDbLine
 10
-145.794903755188
 20
235.8379660894596
 30
0.0
 11
-137.968124628067
 21
235.8379660894596
 31
0.0
  0
LINE
  5
40A
330
1F
100
AcDbEntity
  8
0
  6
Continuous
 62
     2
100
AcDbLine
 10
-145.794903755188
 20
235.3380423834049
 30
0.0
 11
-137.968124628067
 21
235.3380423834049
 31
0.0
  0
LINE
  5
40B
330
1F
100
AcDbEntity
  8
0
  6
Continuous
 62
     2
100
AcDbLine
 10
-145.794903755188
 20
235.3380423834049
 30
0.0
 11
-145.794903755188
 21
235.8379660894596
 31
0.0
  0
LINE
  5
40C
330
1F
100
AcDbEntity
  8
0
  6
Continuous
 62
     2
100
AcDbLine
 10
-148.2945232391357
 20
238.3375846197331
 30
0.0
 11
-148.7944469451904
 21
238.3375846197331
 31
0.0
  0
LINE
  5
40D
330
1F
100
AcDbEntity
  8
0
  6
Continuous
 62
     7
100
AcDbLine
 10
-146.25
 20
232.3324881841862
 30
0.0
 11
-146.75
 21
232.3324881841862
 31
0.0
  0
LINE
  5
40E
330
1F
100
AcDbEntity
  8
0
  6
Continuous
 62
     2
100
AcDbLine
 10
-146.25
 20
234.3324881841862
 30
0.0
 11
-146.25
 21
232.3324881841862
 31
0.0
  0
LINE
  5
40F
330
1F
100
AcDbEntity
  8
0
  6
Continuous
 62
     7
100
AcDbLine
 10
-146.75
 20
234.3324881841862
 30
0.0
 11
-146.75
 21
232.3324881841862
 31
0.0
  0
LINE
  5
410
330
1F
100
AcDbEntity
  8
0
  6
Continuous
 62
     7
100
AcDbLine
 10
-147.8992080688476
 20
237.726973657819
 30
0.0
 11
-148.0500001907349
 21
238.5821086218083
 31
0.0
  0
LINE
  5
411
330
1F
100
AcDbEntity
  8
0
  6
Continuous
 62
     7
100
AcDbLine
 10
-147.4650220870972
 20
236.9750720312321
 30
0.0
 11
-147.8992080688476
 21
237.726973657819
 31
0.0
  0
LINE
  5
412
330
1F
100
AcDbEntity
  8
0
  6
Continuous
 62
     7
100
AcDbLine
 10
-146.7998094558716
 20
236.4170962621891
 30
0.0
 11
-147.4650220870972
 21
236.9750720312321
 31
0.0
  0
LINE
  5
413
330
1F
100
AcDbEntity
  8
0
  6
Continuous
 62
     7
100
AcDbLine
 10
-145.9838056564331
 20
236.1203433325016
 30
0.0
 11
-146.7998094558716
 21
236.4170962621891
 31
0.0
  0
LINE
  5
414
330
1F
100
AcDbEntity
  8
0
  6
Continuous
 62
     7
100
AcDbLine
 10
-145.5503807067871
 20
236.0824881841862
 30
0.0
 11
-145.9838056564331
 21
236.1203433325016
 31
0.0
  0
LINE
  5
415
330
1F
100
AcDbEntity
  8
0
  6
Continuous
 62
     2
100
AcDbLine
 10
-146.5208320617676
 20
235.9456244756901
 30
0.0
 11
-145.794903755188
 21
235.8379660894596
 31
0.0
  0
LINE
  5
416
330
1F
100
AcDbEntity
  8
0
  6
Continuous
 62
     2
100
AcDbLine
 10
-147.1841659545898
 20
236.2594271948063
 30
0.0
 11
-146.5208320617676
 21
235.9456244756901
 31
0.0
  0
LINE
  5
417
330
1F
100
AcDbEntity
  8
0
  6
Continuous
 62
     2
100
AcDbLine
 10
-147.5629367828369
 20
236.5704032232487
 30
0.0
 11
-147.1841659545898
 21
236.2594271948063
 31
0.0
  0
LINE
  5
418
330
1F
100
AcDbEntity
  8
0
  6
Continuous
 62
     2
100
AcDbLine
 10
-147.8734073638916
 20
236.948840265485
 30
0.0
 11
-147.5629367828369
 21
236.5704032232487
 31
0.0
  0
LINE
  5
419
330
1F
100
AcDbEntity
  8
0
  6
Continuous
 62
     2
100
AcDbLine
 10
-148.1869106292725
 20
237.6118079473698
 30
0.0
 11
-147.8734073638916
 21
236.948840265485
 31
0.0
  0
LINE
  5
41A
330
1F
100
AcDbEntity
  8
0
  6
Continuous
 62
     2
100
AcDbLine
 10
-148.2945232391357
 20
238.3375846197331
 30
0.0
 11
-148.1869106292725
 21
237.6118079473698
 31
0.0
  0
LINE
  5
41B
330
1F
100
AcDbEntity
  8
0
  6
Continuous
 62
     2
100
AcDbLine
 10
-146.6659727096558
 20
235.4672766973698
 30
0.0
 11
-145.794903755188
 21
235.3380423834049
 31
0.0
  0
LINE
  5
41C
330
1F
100
AcDbEntity
  8
0
  6
Continuous
 62
     2
100
AcDbLine
 10
-147.4619483947754
 20
235.8438655187809
 30
0.0
 11
-146.6659727096558
 21
235.4672766973698
 31
0.0
  0
LINE
  5
41D
330
1F
100
AcDbEntity
  8
0
  6
Continuous
 62
     2
100
AcDbLine
 10
-147.916467666626
 20
236.2170440008366
 30
0.0
 11
-147.4619483947754
 21
235.8438655187809
 31
0.0
  0
LINE
  5
41E
330
1F
100
AcDbEntity
  8
0
  6
Continuous
 62
     2
100
AcDbLine
 10
-148.2890367507935
 20
236.6711608221256
 30
0.0
 11
-147.916467666626
 21
236.2170440008366
 31
0.0
  0
LINE
  5
41F
330
1F
100
AcDbEntity
  8
0
  6
Continuous
 62
     2
100
AcDbLine
 10
-148.6652660369873
 20
237.4666968633854
 30
0.0
 11
-148.2890367507935
 21
236.6711608221256
 31
0.0
  0
LINE
  5
420
330
1F
100
AcDbEntity
  8
0
  6
Continuous
 62
     2
100
AcDbLine
 10
-148.7944469451904
 20
238.3375846197331
 30
0.0
 11
-148.6652660369873
 21
237.4666968633854
 31
0.0
  0
LINE
  5
421
330
1F
100
AcDbEntity
  8
0
  6
Continuous
 62
     7
100
AcDbLine
 10
-146.25
 20
232.3324881841862
 30
0.0
 11
-139.0499997138977
 21
232.3324881841862
 31
0.0
  0
LINE
  5
422
330
1F
100
AcDbEntity
  8
0
  6
Continuous
 62
     2
100
AcDbLine
 10
-145.794903755188
 20
235.8379660894596
 30
0.0
 11
-145.5503807067871
 21
236.0824881841862
 31
0.0
  0
LINE
  5
423
330
1F
100
AcDbEntity
  8
0
  6
Continuous
 62
     2
100
AcDbLine
 10
-148.2945232391357
 20
238.3375846197331
 30
0.0
 11
-148.0500001907349
 21
238.5821086218083
 31
0.0
  0
LINE
  5
424
330
1F
100
AcDbEntity
  8
0
  6
Continuous
 62
     7
100
AcDbLine
 10
-150.0
 20
234.3324881841862
 30
0.0
 11
-150.0
 21
245.8324888994419
 31
0.0
  0
LINE
  5
425
330
1F
100
AcDbEntity
  8
0
  6
Continuous
 62
     7
100
AcDbLine
 10
-146.1999998092651
 20
243.2324878027165
 30
0.0
 11
-146.1999998092651
 21
255.4324885656559
 31
0.0
  0
LINE
  5
426
330
1F
100
AcDbEntity
  8
0
  6
Continuous
 62
     7
100
AcDbLine
 10
-136.2999994754791
 20
234.3324881841862
 30
0.0
 11
-150.0
 21
234.3324881841862
 31
0.0
  0
LINE
  5
427
330
1F
100
AcDbEntity
  8
0
  6
Continuous
 62
     7
100
AcDbLine
 10
-137.4682009220123
 20
240.7006903936588
 30
0.0
 11
-137.7999994754791
 21
241.0324889471256
 31
0.0
  0
LINE
  5
428
330
1F
100
AcDbEntity
  8
0
  6
Continuous
 62
     7
100
AcDbLine
 10
-132.7999994754791
 20
241.0324889471256
 30
0.0
 11
-137.7999994754791
 21
241.0324889471256
 31
0.0
  0
LINE
  5
429
330
1F
100
AcDbEntity
  8
0
  6
Continuous
 62
     7
100
AcDbLine
 10
-119.6999988555908
 20
98.47563189307282
 30
0.0
 11
-120.6000003814697
 21
98.47563189307282
 31
0.0
  0
LINE
  5
42A
330
1F
100
AcDbEntity
  8
0
  6
Continuous
 62
     7
100
AcDbLine
 10
-120.6000003814697
 20
97.47563189307282
 30
0.0
 11
-119.6999988555908
 21
97.47563189307282
 31
0.0
  0
LINE
  5
42B
330
1F
100
AcDbEntity
  8
0
  6
Continuous
 62
     7
100
AcDbLine
 10
-120.6000003814697
 20
95.80350703040192
 30
0.0
 11
-119.6999988555908
 21
95.80350703040192
 31
0.0
  0
LINE
  5
42C
330
1F
100
AcDbEntity
  8
0
  6
Continuous
 62
     7
100
AcDbLine
 10
-119.6999988555908
 20
96.80350703040192
 30
0.0
 11
-120.6000003814697
 21
96.80350703040192
 31
0.0
  0
LINE
  5
42D
330
1F
100
AcDbEntity
  8
0
  6
Continuous
 62
     7
100
AcDbLine
 10
-119.6999988555908
 20
97.47563189307282
 30
0.0
 11
-119.6999988555908
 21
98.47563189307282
 31
0.0
  0
LINE
  5
42E
330
1F
100
AcDbEntity
  8
0
  6
Continuous
 62
     7
100
AcDbLine
 10
-119.6999988555908
 20
95.80350703040192
 30
0.0
 11
-119.6999988555908
 21
96.80350703040192
 31
0.0
  0
LINE
  5
42F
330
1F
100
AcDbEntity
  8
0
  6
Continuous
 62
     7
100
AcDbLine
 10
-123.8500003814697
 20
102.1395704154117
 30
0.0
 11
-123.8500003814697
 21
104.1395704154117
 31
0.0
  0
LINE
  5
430
330
1F
100
AcDbEntity
  8
0
  6
Continuous
 62
     7
100
AcDbLine
 10
-120.6000003814697
 20
101.1395704154117
 30
0.0
 11
-120.6000003814697
 21
102.1395704154117
 31
0.0
  0
LINE
  5
431
330
1F
100
AcDbEntity
  8
0
  6
Continuous
 62
     7
100
AcDbLine
 10
-132.0499994754791
 20
104.1395704154117
 30
0.0
 11
-132.0499994754791
 21
102.1395704154117
 31
0.0
  0
LINE
  5
432
330
1F
100
AcDbEntity
  8
0
  6
Continuous
 62
     7
100
AcDbLine
 10
-123.8500003814697
 20
104.1395704154117
 30
0.0
 11
-132.0499994754791
 21
104.1395704154117
 31
0.0
  0
LINE
  5
433
330
1F
100
AcDbEntity
  8
0
  6
Continuous
 62
     7
100
AcDbLine
 10
-138.5499994754791
 20
102.1395704154117
 30
0.0
 11
-138.5499994754791
 21
104.1395704154117
 31
0.0
  0
LINE
  5
434
330
1F
100
AcDbEntity
  8
0
  6
Continuous
 62
     7
100
AcDbLine
 10
-150.0
 20
98.68956965247223
 30
0.0
 11
-150.0
 21
99.13957041541168
 31
0.0
  0
LINE
  5
435
330
1F
100
AcDbEntity
  8
0
  6
Continuous
 62
     7
100
AcDbLine
 10
-149.0
 20
99.13957041541168
 30
0.0
 11
-150.0
 21
99.13957041541168
 31
0.0
  0
LINE
  5
436
330
1F
100
AcDbEntity
  8
0
  6
Continuous
 62
     7
100
AcDbLine
 10
-149.0
 20
98.68956965247223
 30
0.0
 11
-150.0
 21
98.68956965247223
 31
0.0
  0
LINE
  5
437
330
1F
100
AcDbEntity
  8
0
  6
Continuous
 62
     7
100
AcDbLine
 10
-150.0
 20
101.1395704154117
 30
0.0
 11
-150.0
 21
99.13957041541168
 31
0.0
  0
LINE
  5
438
330
1F
100
AcDbEntity
  8
0
  6
Continuous
 62
     7
100
AcDbLine
 10
-146.75
 20
104.1395704154117
 30
0.0
 11
-146.75
 21
102.1395704154117
 31
0.0
  0
LINE
  5
439
330
1F
100
AcDbEntity
  8
0
  6
Continuous
 62
     7
100
AcDbLine
 10
-150.0
 20
95.5895692710025
 30
0.0
 11
-150.0
 21
98.68956965247223
 31
0.0
  0
LINE
  5
43A
330
1F
100
AcDbEntity
  8
0
  6
Continuous
 62
     7
100
AcDbLine
 10
-149.0
 20
95.13957041541168
 30
0.0
 11
-149.0
 21
99.13957041541168
 31
0.0
  0
LINE
  5
43B
330
1F
100
AcDbEntity
  8
0
  6
Continuous
 62
     7
100
AcDbLine
 10
-150.0
 20
102.1395704154117
 30
0.0
 11
-150.0
 21
101.1395704154117
 31
0.0
  0
LINE
  5
43C
330
1F
100
AcDbEntity
  8
0
  6
Continuous
 62
     7
100
AcDbLine
 10
-138.5499994754791
 20
104.1395704154117
 30
0.0
 11
-146.75
 21
104.1395704154117
 31
0.0
  0
LINE
  5
43D
330
1F
100
AcDbEntity
  8
0
  6
Continuous
 62
     7
100
AcDbLine
 10
-150.0
 20
95.13957041541168
 30
0.0
 11
-149.0
 21
95.13957041541168
 31
0.0
  0
LINE
  5
43E
330
1F
100
AcDbEntity
  8
0
  6
Continuous
 62
     7
100
AcDbLine
 10
-150.0
 20
95.5895692710025
 30
0.0
 11
-149.0
 21
95.5895692710025
 31
0.0
  0
LINE
  5
43F
330
1F
100
AcDbEntity
  8
0
  6
Continuous
 62
     7
100
AcDbLine
 10
-150.0
 20
95.13957041541168
 30
0.0
 11
-150.0
 21
95.5895692710025
 31
0.0
  0
LINE
  5
440
330
1F
100
AcDbEntity
  8
0
  6
Continuous
 62
     7
100
AcDbLine
 10
-121.5499992370606
 20
87.13956970011297
 30
0.0
 11
-121.6499996185303
 21
87.13956970011297
 31
0.0
  0
LINE
  5
441
330
1F
100
AcDbEntity
  8
0
  6
Continuous
 62
     7
100
AcDbLine
 10
-121.1655464172363
 20
83.43956989089081
 30
0.0
 11
-121.5499992370606
 21
83.43956989089081
 31
0.0
  0
LINE
  5
442
330
1F
100
AcDbEntity
  8
0
  6
Continuous
 62
     7
100
AcDbLine
 10
-121.6499996185303
 20
83.43956989089081
 30
0.0
 11
-122.0344524383545
 21
83.43956989089081
 31
0.0
  0
LINE
  5
443
330
1F
100
AcDbEntity
  8
0
  6
Continuous
 62
     7
100
AcDbLine
 10
-121.6000003814697
 20
80.13956993857452
 30
0.0
 11
-121.1655464172363
 21
83.43956989089081
 31
0.0
  0
LINE
  5
444
330
1F
100
AcDbEntity
  8
0
  6
Continuous
 62
     7
100
AcDbLine
 10
-122.0344524383545
 20
83.43956989089081
 30
0.0
 11
-121.6000003814697
 21
80.13956993857452
 31
0.0
  0
LINE
  5
445
330
1F
100
AcDbEntity
  8
0
  6
Continuous
 62
     7
100
AcDbLine
 10
-121.6499996185303
 20
87.13956970011297
 30
0.0
 11
-121.6499996185303
 21
83.43956989089081
 31
0.0
  0
LINE
  5
446
330
1F
100
AcDbEntity
  8
0
  6
Continuous
 62
     7
100
AcDbLine
 10
-121.5499992370606
 20
83.43956989089081
 30
0.0
 11
-121.5499992370606
 21
87.13956970011297
 31
0.0
  0
LINE
  5
447
330
1F
100
AcDbEntity
  8
0
  6
Continuous
 62
     7
100
AcDbLine
 10
-119.6999988555908
 20
76.80350703040192
 30
0.0
 11
-120.6000003814697
 21
76.80350703040192
 31
0.0
  0
LINE
  5
448
330
1F
100
AcDbEntity
  8
0
  6
Continuous
 62
     7
100
AcDbLine
 10
-120.6000003814697
 20
75.80350703040192
 30
0.0
 11
-119.6999988555908
 21
75.80350703040192
 31
0.0
  0
LINE
  5
449
330
1F
100
AcDbEntity
  8
0
  6
Continuous
 62
     7
100
AcDbLine
 10
-120.6000003814697
 20
77.47563284674713
 30
0.0
 11
-119.6999988555908
 21
77.47563284674713
 31
0.0
  0
LINE
  5
44A
330
1F
100
AcDbEntity
  8
0
  6
Continuous
 62
     7
100
AcDbLine
 10
-119.6999988555908
 20
78.47563284674713
 30
0.0
 11
-120.6000003814697
 21
78.47563284674713
 31
0.0
  0
LINE
  5
44B
330
1F
100
AcDbEntity
  8
0
  6
Continuous
 62
     7
100
AcDbLine
 10
-119.6999988555908
 20
75.80350703040192
 30
0.0
 11
-119.6999988555908
 21
76.80350703040192
 31
0.0
  0
LINE
  5
44C
330
1F
100
AcDbEntity
  8
0
  6
Continuous
 62
     7
100
AcDbLine
 10
-119.6999988555908
 20
77.47563284674713
 30
0.0
 11
-119.6999988555908
 21
78.47563284674713
 31
0.0
  0
LINE
  5
44D
330
1F
100
AcDbEntity
  8
0
  6
Continuous
 62
     7
100
AcDbLine
 10
-124.8500003814697
 20
70.13957041541168
 30
0.0
 11
-124.8500003814697
 21
72.13957041541168
 31
0.0
  0
LINE
  5
44E
330
1F
100
AcDbEntity
  8
0
  6
Continuous
 62
     7
100
AcDbLine
 10
-120.6000003814697
 20
72.13957041541168
 30
0.0
 11
-120.6000003814697
 21
73.13957041541168
 31
0.0
  0
LINE
  5
44F
330
1F
100
AcDbEntity
  8
0
  6
Continuous
 62
     7
100
AcDbLine
 10
-131.0499994754791
 20
70.13957041541168
 30
0.0
 11
-124.8500003814697
 21
70.13957041541168
 31
0.0
  0
LINE
  5
450
330
1F
100
AcDbEntity
  8
0
  6
Continuous
 62
     7
100
AcDbLine
 10
-131.0499994754791
 20
72.13957041541168
 30
0.0
 11
-131.0499994754791
 21
70.13957041541168
 31
0.0
  0
LINE
  5
451
330
1F
100
AcDbEntity
  8
0
  6
Continuous
 62
     7
100
AcDbLine
 10
-148.9499998092651
 20
87.13956970011297
 30
0.0
 11
-149.0499992370606
 21
87.13956970011297
 31
0.0
  0
LINE
  5
452
330
1F
100
AcDbEntity
  8
0
  6
Continuous
 62
     7
100
AcDbLine
 10
-149.0499992370606
 20
83.43956989089081
 30
0.0
 11
-149.4344530105591
 21
83.43956989089081
 31
0.0
  0
LINE
  5
453
330
1F
100
AcDbEntity
  8
0
  6
Continuous
 62
     7
100
AcDbLine
 10
-148.5655460357666
 20
83.43956989089081
 30
0.0
 11
-148.9499998092651
 21
83.43956989089081
 31
0.0
  0
LINE
  5
454
330
1F
100
AcDbEntity
  8
0
  6
Continuous
 62
     7
100
AcDbLine
 10
-150.0
 20
78.68956965247223
 30
0.0
 11
-150.0
 21
79.13957041541168
 31
0.0
  0
LINE
  5
455
330
1F
100
AcDbEntity
  8
0
  6
Continuous
 62
     7
100
AcDbLine
 10
-149.0
 20
79.13957041541168
 30
0.0
 11
-150.0
 21
79.13957041541168
 31
0.0
  0
LINE
  5
456
330
1F
100
AcDbEntity
  8
0
  6
Continuous
 62
     7
100
AcDbLine
 10
-149.0
 20
78.68956965247223
 30
0.0
 11
-150.0
 21
78.68956965247223
 31
0.0
  0
LINE
  5
457
330
1F
100
AcDbEntity
  8
0
  6
Continuous
 62
     7
100
AcDbLine
 10
-149.0
 20
80.13956993857452
 30
0.0
 11
-148.5655460357666
 21
83.43956989089081
 31
0.0
  0
LINE
  5
458
330
1F
100
AcDbEntity
  8
0
  6
Continuous
 62
     7
100
AcDbLine
 10
-149.4344530105591
 20
83.43956989089081
 30
0.0
 11
-149.0
 21
80.13956993857452
 31
0.0
  0
LINE
  5
459
330
1F
100
AcDbEntity
  8
0
  6
Continuous
 62
     7
100
AcDbLine
 10
-149.0499992370606
 20
87.13956970011297
 30
0.0
 11
-149.0499992370606
 21
83.43956989089081
 31
0.0
  0
LINE
  5
45A
330
1F
100
AcDbEntity
  8
0
  6
Continuous
 62
     7
100
AcDbLine
 10
-148.9499998092651
 20
83.43956989089081
 30
0.0
 11
-148.9499998092651
 21
87.13956970011297
 31
0.0
  0
LINE
  5
45B
330
1F
100
AcDbEntity
  8
0
  6
Continuous
 62
     7
100
AcDbLine
 10
-150.0
 20
75.13957041541168
 30
0.0
 11
-150.0
 21
75.58957022467682
 31
0.0
  0
LINE
  5
45C
330
1F
100
AcDbEntity
  8
0
  6
Continuous
 62
     7
100
AcDbLine
 10
-150.0
 20
75.13957041541168
 30
0.0
 11
-149.0
 21
75.13957041541168
 31
0.0
  0
LINE
  5
45D
330
1F
100
AcDbEntity
  8
0
  6
Continuous
 62
     7
100
AcDbLine
 10
-150.0
 20
75.58957022467682
 30
0.0
 11
-149.0
 21
75.58957022467682
 31
0.0
  0
LINE
  5
45E
330
1F
100
AcDbEntity
  8
0
  6
Continuous
 62
     7
100
AcDbLine
 10
-150.0
 20
75.13957041541168
 30
0.0
 11
-150.0
 21
73.13957041541168
 31
0.0
  0
LINE
  5
45F
330
1F
100
AcDbEntity
  8
0
  6
Continuous
 62
     7
100
AcDbLine
 10
-145.75
 20
72.13957041541168
 30
0.0
 11
-145.75
 21
70.13957041541168
 31
0.0
  0
LINE
  5
460
330
1F
100
AcDbEntity
  8
0
  6
Continuous
 62
     7
100
AcDbLine
 10
-150.0
 20
75.58957022467682
 30
0.0
 11
-150.0
 21
78.68956965247223
 31
0.0
  0
LINE
  5
461
330
1F
100
AcDbEntity
  8
0
  6
Continuous
 62
     7
100
AcDbLine
 10
-149.0
 20
75.13957041541168
 30
0.0
 11
-149.0
 21
79.13957041541168
 31
0.0
  0
LINE
  5
462
330
1F
100
AcDbEntity
  8
0
  6
Continuous
 62
     7
100
AcDbLine
 10
-145.75
 20
70.13957041541168
 30
0.0
 11
-139.5499997138977
 21
70.13957041541168
 31
0.0
  0
LINE
  5
463
330
1F
100
AcDbEntity
  8
0
  6
Continuous
 62
     7
100
AcDbLine
 10
-150.0
 20
73.13957041541168
 30
0.0
 11
-150.0
 21
72.13957041541168
 31
0.0
  0
LINE
  5
464
330
1F
100
AcDbEntity
  8
0
  6
Continuous
 62
     7
100
AcDbLine
 10
-150.0
 20
95.13957041541168
 30
0.0
 11
-150.0
 21
79.13957041541168
 31
0.0
  0
LINE
  5
465
330
1F
100
AcDbEntity
  8
0
  6
Continuous
 62
     7
100
AcDbLine
 10
-139.5499997138977
 20
70.13957041541168
 30
0.0
 11
-139.5499997138977
 21
72.13957041541168
 31
0.0
  0
LINE
  5
466
330
1F
100
AcDbEntity
  8
0
  6
Continuous
 62
     7
100
AcDbLine
 10
-120.6000003814697
 20
73.13957041541168
 30
0.0
 11
-120.6000003814697
 21
101.1395704154117
 31
0.0
  0
LINE
  5
467
330
1F
100
AcDbEntity
  8
0
  6
Continuous
 62
     7
100
AcDbLine
 10
-120.6000003814697
 20
102.1395704154117
 30
0.0
 11
-150.0
 21
102.1395704154117
 31
0.0
  0
LINE
  5
468
330
1F
100
AcDbEntity
  8
0
  6
Continuous
 62
     7
100
AcDbLine
 10
-120.6000003814697
 20
101.1395704154117
 30
0.0
 11
-150.0
 21
101.1395704154117
 31
0.0
  0
LINE
  5
469
330
1F
100
AcDbEntity
  8
0
  6
Continuous
 62
     7
100
AcDbLine
 10
-150.0
 20
72.13957041541168
 30
0.0
 11
-120.6000003814697
 21
72.13957041541168
 31
0.0
  0
LINE
  5
46A
330
1F
100
AcDbEntity
  8
0
  6
Continuous
 62
     7
100
AcDbLine
 10
-150.0
 20
73.13957041541168
 30
0.0
 11
-120.6000003814697
 21
73.13957041541168
 31
0.0
  0
ARC
  5
46B
102
{ACAD_REACTORS
330
4C2
102
}
330
1F
100
AcDbEntity
  8
1
  6
Continuous
 62
     7
100
AcDbCircle
 10
-14.32369931125729
 20
10.84673060906317
 30
0.0
 40
0.3333333333333121
100
AcDbArc
 50
299.9816393688349
 51
119.9816393688398
  0
ARC
  5
46C
102
{ACAD_REACTORS
330
4C2
102
}
330
1F
100
AcDbEntity
  8
1
  6
Continuous
 62
     7
100
AcDbCircle
 10
-14.32369931125729
 20
12.5
 30
0.0
 40
0.3333333333334298
100
AcDbArc
 50
270.0
 51
90.0
  0
ARC
  5
46D
102
{ACAD_REACTORS
330
4C2
102
}
330
1F
100
AcDbEntity
  8
1
  6
Continuous
 62
     7
100
AcDbCircle
 10
-14.32369931125729
 20
14.15326939093666
 30
0.0
 40
0.333333333333372
100
AcDbArc
 50
240.0183606311508
 51
60.01836063115039
  0
ARC
  5
46E
102
{ACAD_REACTORS
330
4C3
102
}
330
1F
100
AcDbEntity
  8
1
  6
Continuous
 62
     7
100
AcDbCircle
 10
-22.32369931125729
 20
10.84673060906317
 30
0.0
 40
0.3333333333333997
100
AcDbArc
 50
180.0
 51
0.0
  0
ARC
  5
46F
102
{ACAD_REACTORS
330
4C3
102
}
330
1F
100
AcDbEntity
  8
1
  6
Continuous
 62
     7
100
AcDbCircle
 10
-22.32369931125729
 20
14.15326939093666
 30
0.0
 40
0.3333333333332007
100
AcDbArc
 50
0.0
 51
180.0
  0
ARC
  5
470
102
{ACAD_REACTORS
330
4C4
102
}
330
1F
100
AcDbEntity
  8
1
  6
Continuous
 62
     7
100
AcDbCircle
 10
-18.65703264459069
 20
8.7313459936787
 30
0.0
 40
0.3333333333333673
100
AcDbArc
 50
240.0183606311504
 51
60.01836063115359
  0
ARC
  5
471
102
{ACAD_REACTORS
330
4C4
102
}
330
1F
100
AcDbEntity
  8
1
  6
Continuous
 62
     7
100
AcDbCircle
 10
-20.99036597792409
 20
14.92250016016737
 30
0.0
 40
0.3333333333333997
100
AcDbArc
 50
0.0
 51
180.0
  0
ARC
  5
472
102
{ACAD_REACTORS
330
4C5
102
}
330
1F
100
AcDbEntity
  8
1
  6
Continuous
 62
     7
100
AcDbCircle
 10
-16.921998857066
 20
15.73121731203457
 30
0.0
 40
0.2649662124753114
100
AcDbArc
 50
0.0
 51
149.9999999999689
  0
ARC
  5
473
102
{ACAD_REACTORS
330
4C5
102
}
330
1F
100
AcDbEntity
  8
1
  6
Continuous
 62
     7
100
AcDbCircle
 10
-16.99036597792389
 20
9.3082690706018
 30
0.0
 40
0.3333333333333997
100
AcDbArc
 50
180.0
 51
0.0
  0
ARC
  5
474
102
{ACAD_REACTORS
330
4C5
102
}
330
1F
100
AcDbEntity
  8
1
  6
Continuous
 62
     7
100
AcDbCircle
 10
-19.65703264459069
 20
10.84758507263291
 30
0.0
 40
0.3333333333333997
100
AcDbArc
 50
180.0
 51
0.0
  0
ARC
  5
475
102
{ACAD_REACTORS
330
4C5
102
}
330
1F
100
AcDbEntity
  8
1
  6
Continuous
 62
     7
100
AcDbCircle
 10
-19.72539976544869
 20
15.73121731203457
 30
0.0
 40
0.2649662124752854
100
AcDbArc
 50
30.00000000001921
 51
180.0
  0
ARC
  5
476
330
1F
100
AcDbEntity
  8
0
  6
Continuous
 62
     7
100
AcDbCircle
 10
-125.3499996607205
 20
172.3360294380591
 30
0.0
 40
0.4999992792512921
100
AcDbArc
 50
269.9999174081066
 51
0.00008259189669
  0
ARC
  5
477
330
1F
100
AcDbEntity
  8
0
  6
Continuous
 62
     7
100
AcDbCircle
 10
-130.5499999704647
 20
172.3360296638229
 30
0.0
 40
0.4999995050146316
100
AcDbArc
 50
179.9999432787935
 51
270.0000294004423
  0
ARC
  5
478
330
1F
100
AcDbEntity
  8
0
  6
Continuous
 62
     7
100
AcDbCircle
 10
-145.2500002327249
 20
172.3360299260834
 30
0.0
 40
0.4999997672751677
100
AcDbArc
 50
179.9999733316768
 51
270.00002666832
  0
ARC
  5
479
330
1F
100
AcDbEntity
  8
0
  6
Continuous
 62
     7
100
AcDbCircle
 10
-140.0499993269347
 20
172.3360297718453
 30
0.0
 40
0.4999996130371264
100
AcDbArc
 50
269.9999556572728
 51
0.00004434273046
  0
ARC
  5
47A
330
1F
100
AcDbEntity
  8
0
  6
Continuous
 62
     7
100
AcDbCircle
 10
-135.2999999523163
 20
249.3324884372251
 30
0.0
 40
9.749999119231191
100
AcDbArc
 50
284.3801363774552
 51
255.619863622545
  0
ARC
  5
47B
330
1F
100
AcDbEntity
  8
0
  6
Continuous
 62
     2
100
AcDbCircle
 10
-135.2999999523163
 20
249.3324884372251
 30
0.0
 40
10.2499997117538
100
AcDbArc
 50
283.6144783820326
 51
256.3855216179676
  0
CIRCLE
  5
47C
330
1F
100
AcDbEntity
  8
0
  6
Continuous
 62
     7
100
AcDbCircle
 10
-135.2999997027109
 20
249.3324884372251
 30
0.0
 40
4.85000000000008
  0
CIRCLE
  5
47D
330
1F
100
AcDbEntity
  8
0
  6
Continuous
 62
     7
100
AcDbCircle
 10
-135.2999997027109
 20
87.13957016237269
 30
0.0
 40
4.850000000000335
  0
CIRCLE
  5
47E
330
1F
100
AcDbEntity
  8
0
  6
Continuous
 62
     2
100
AcDbCircle
 10
-135.2999997027109
 20
87.13957016237269
 30
0.0
 40
5.850000000000321
  0
CIRCLE
  5
47F
330
1F
100
AcDbEntity
  8
0
  6
Continuous
 62
     7
100
AcDbCircle
 10
-135.2999997027109
 20
87.13957016237269
 30
0.0
 40
8.000000000000327
  0
CIRCLE
  5
480
330
1F
100
AcDbEntity
  8
0
  6
Continuous
 62
     2
100
AcDbCircle
 10
-135.2999997027109
 20
87.13957016237269
 30
0.0
 40
10.0
  0
SPLINE
  5
481
330
1F
100
AcDbEntity
  8
0
  6
Continuous
 62
     7
100
AcDbSpline
210
0.0
220
0.0
230
1.0
 70
     8
 71
     3
 72
    13
 73
     9
 74
     7
 42
0.000000001
 43
0.0000000001
 44
0.00000001
 40
0.0
 40
0.0
 40
0.0
 40
0.0
 40
0.110913638515014
 40
0.2340633047615934
 40
0.3637529858953318
 40
0.4934426507919802
 40
0.6165921325318126
 40
0.7275048711101735
 40
0.7275048711101735
 40
0.7275048711101735
 40
0.7275048711101735
 10
-43.04456317674342
 20
275.3262590227801
 30
0.0
 10
-43.01042932335621
 20
275.3118220837077
 30
0.0
 10
-42.93839595365463
 20
275.2813555320159
 30
0.0
 10
-42.81847514668901
 20
275.2587947911893
 30
0.0
 10
-42.69100911252971
 20
275.2500821022198
 30
0.0
 10
-42.56354318072439
 20
275.2587949020631
 30
0.0
 10
-42.44362265312807
 20
275.2813554888585
 30
0.0
 10
-42.37158992443394
 20
275.3118226826745
 30
0.0
 10
-42.33745649360591
 20
275.3262598757724
 30
0.0
 11
-43.04456317674342
 21
275.3262590227801
 31
0.0
 11
-42.9410092954575
 21
275.2865295760357
 31
0.0
 11
-42.82041873506051
 21
275.2615544416171
 31
0.0
 11
-42.69100911404863
 21
275.2530359943014
 31
0.0
 11
-42.56159951473202
 21
275.2615545240136
 31
0.0
 11
-42.44100917491346
 21
275.2865298136986
 31
0.0
 11
-42.33745649360591
 21
275.3262598757724
 31
0.0
  0
SPLINE
  5
482
330
1F
100
AcDbEntity
  8
0
  6
Continuous
 62
     7
100
AcDbSpline
210
0.0
220
0.0
230
1.0
 70
     8
 71
     3
 72
    11
 73
     7
 74
     5
 42
0.000000001
 43
0.0000000001
 44
0.00000001
 40
0.0
 40
0.0
 40
0.0
 40
0.0
 40
0.0728139319859057
 40
0.1360837244203199
 40
0.1909384731517307
 40
0.2406485302581731
 40
0.2406485302581731
 40
0.2406485302581731
 40
0.2406485302581731
 10
-38.66050250898391
 20
277.1647368680834
 30
0.0
 10
-38.63916504655982
 20
277.1765074171549
 30
0.0
 10
-38.59928695266813
 20
277.1985056933669
 30
0.0
 10
-38.55230153719138
 20
277.2419775611201
 30
0.0
 10
-38.52033051130616
 20
277.2898425798464
 30
0.0
 10
-38.51607651237954
 20
277.3248645409066
 30
0.0
 10
-38.51405417023472
 20
277.3415139653644
 30
0.0
 11
-38.66050250898391
 21
277.1647368680834
 31
0.0
 11
-38.59831988630082
 21
277.202620766693
 31
0.0
 11
-38.55211448108996
 21
277.2458426075616
 31
0.0
 11
-38.5236614936189
 21
277.2927411305447
 31
0.0
 11
-38.51405417023472
 21
277.3415139653644
 31
0.0
  0
SPLINE
  5
483
330
1F
100
AcDbEntity
  8
0
  6
Continuous
 62
     7
100
AcDbSpline
210
0.0
220
0.0
230
1.0
 70
     8
 71
     3
 72
    11
 73
     7
 74
     5
 42
0.000000001
 43
0.0000000001
 44
0.00000001
 40
0.0
 40
0.0
 40
0.0
 40
0.0
 40
0.0497097283582325
 40
0.104564114468235
 40
0.1678334279044473
 40
0.2406467591003432
 40
0.2406467591003432
 40
0.2406467591003432
 40
0.2406467591003432
 10
-38.51405417023472
 20
277.3415139653644
 30
0.0
 10
-38.51607659141848
 20
277.3581632647193
 30
0.0
 10
-38.52033075660913
 20
277.3931849626767
 30
0.0
 10
-38.55230160675325
 20
277.4410495807858
 30
0.0
 10
-38.59928663792739
 20
277.4845211502827
 30
0.0
 10
-38.63916438557852
 20
277.5065193035769
 30
0.0
 10
-38.66050165599174
 20
277.518289783156
 30
0.0
 11
-38.51405417023472
 21
277.3415139653644
 31
0.0
 11
-38.52366167003086
 21
277.3902864303682
 31
0.0
 11
-38.55211455074041
 21
277.4371845939833
 31
0.0
 11
-38.59831959111899
 21
277.4804061236921
 31
0.0
 11
-38.66050165599174
 21
277.518289783156
 31
0.0
  0
SPLINE
  5
484
330
1F
100
AcDbEntity
  8
0
  6
Continuous
 62
     7
100
AcDbSpline
210
0.0
220
0.0
230
1.0
 70
     8
 71
     3
 72
    11
 73
     7
 74
     5
 42
0.000000001
 43
0.0000000001
 44
0.00000001
 40
0.0
 40
0.0
 40
0.0
 40
0.0
 40
0.0728134659051142
 40
0.136082879478688
 40
0.1909373410836387
 40
0.2406471730215855
 40
0.2406471730215855
 40
0.2406471730215855
 40
0.2406471730215855
 10
-49.05497099634042
 20
271.9675026244052
 30
0.0
 10
-49.03363370254431
 20
271.9792731556005
 30
0.0
 10
-48.99375591614906
 20
272.0012714026272
 30
0.0
 10
-48.94677088938715
 20
272.0447431342464
 30
0.0
 10
-48.91480014471545
 20
272.0926079592472
 30
0.0
 10
-48.91054618020692
 20
272.1276297470322
 30
0.0
 10
-48.90852385367683
 20
272.14427909527
 30
0.0
 11
-49.05497099634042
 21
271.9675026244052
 31
0.0
 11
-48.99278887280392
 21
272.0053864464929
 31
0.0
 11
-48.94658385173123
 21
272.048608143425
 31
0.0
 11
-48.9181311028639
 21
272.0955064753303
 31
0.0
 11
-48.90852385367683
 21
272.14427909527
 31
0.0
  0
SPLINE
  5
485
330
1F
100
AcDbEntity
  8
0
  6
Continuous
 62
     7
100
AcDbSpline
210
0.0
220
0.0
230
1.0
 70
     8
 71
     3
 72
    11
 73
     7
 74
     5
 42
0.000000001
 43
0.0000000001
 44
0.00000001
 40
0.0
 40
0.0
 40
0.0
 40
0.0
 40
0.0497097341143089
 40
0.1045641255372166
 40
0.1678334125626869
 40
0.2406463952196903
 40
0.2406463952196903
 40
0.2406463952196903
 40
0.2406463952196903
 10
-48.90852385367683
 20
272.14427909527
 30
0.0
 10
-48.91054627132416
 20
272.1609283968294
 30
0.0
 10
-48.91480042903363
 20
272.1959500990758
 30
0.0
 10
-48.94677127674356
 20
272.2438147211055
 30
0.0
 10
-48.99375618789338
 20
272.2872861916465
 30
0.0
 10
-49.0336336014872
 20
272.3092846613029
 30
0.0
 10
-49.0549706498123
 20
272.3210552862457
 30
0.0
 11
-48.90852385367683
 21
272.14427909527
 31
0.0
 11
-48.91813134517007
 21
272.193051567776
 31
0.0
 11
-48.94658422332468
 21
272.2399497391554
 31
0.0
 11
-48.9927891804769
 21
272.2831713191745
 31
0.0
 11
-49.0549706498123
 21
272.3210552862457
 31
0.0
  0
SPLINE
  5
486
330
1F
100
AcDbEntity
  8
0
  6
Continuous
 62
     7
100
AcDbSpline
210
0.0
220
0.0
230
1.0
 70
     8
 71
     3
 72
    11
 73
     7
 74
     5
 42
0.000000001
 43
0.0000000001
 44
0.00000001
 40
0.0
 40
0.0
 40
0.0
 40
0.0
 40
0.0683733368237033
 40
0.1418180555558828
 40
0.2236330665055682
 40
0.3148617851356579
 40
0.3148617851356579
 40
0.3148617851356579
 40
0.3148617851356579
 10
-30.16374518566232
 20
270.9026664127426
 30
0.0
 10
-30.14438800895973
 20
270.9151564010696
 30
0.0
 10
-30.10423790549736
 20
270.9410627958003
 30
0.0
 10
-30.06375118521879
 20
271.0059511301394
 30
0.0
 10
-30.03804203399431
 20
271.0847163900863
 30
0.0
 10
-30.03526328205219
 20
271.1425916880854
 30
0.0
 10
-30.03379833043053
 20
271.1731035676238
 30
0.0
 11
-30.16374518566232
 21
270.9026664127426
 31
0.0
 11
-30.10903827869231
 21
270.9436794337578
 31
0.0
 11
-30.06793265977461
 21
271.0045436709232
 31
0.0
 11
-30.04243733588397
 21
271.0822848112763
 31
0.0
 11
-30.03379833043053
 21
271.1731035676238
 31
0.0
  0
SPLINE
  5
487
330
1F
100
AcDbEntity
  8
0
  6
Continuous
 62
     7
100
AcDbSpline
210
0.0
220
0.0
230
1.0
 70
     8
 71
     3
 72
    11
 73
     7
 74
     5
 42
0.000000001
 43
0.0000000001
 44
0.00000001
 40
0.0
 40
0.0
 40
0.0
 40
0.0
 40
0.0728136719687855
 40
0.1360832790824283
 40
0.1909378897621315
 40
0.2406478244189594
 40
0.2406478244189594
 40
0.2406478244189594
 40
0.2406478244189594
 10
-38.66050208248782
 20
275.4326862248148
 30
0.0
 10
-38.63916471454894
 20
275.4444567631336
 30
0.0
 10
-38.59928678534133
 20
275.4664550258153
 30
0.0
 10
-38.55230153372778
 20
275.5099267782299
 30
0.0
 10
-38.52033058579903
 20
275.5577916534808
 30
0.0
 10
-38.51607653642044
 20
275.5928135170313
 30
0.0
 10
-38.51405417023412
 20
275.6094628955995
 30
0.0
 11
-38.66050208248782
 21
275.4326862248148
 31
0.0
 11
-38.59831973053725
 21
275.4705700680443
 31
0.0
 11
-38.55211447926396
 21
275.5137918021969
 31
0.0
 11
-38.52366154430493
 21
275.5606901955668
 31
0.0
 11
-38.51405417023412
 21
275.6094628955995
 31
0.0
  0
SPLINE
  5
488
330
1F
100
AcDbEntity
  8
0
  6
Continuous
 62
     7
100
AcDbSpline
210
0.0
220
0.0
230
1.0
 70
     8
 71
     3
 72
    13
 73
     9
 74
     7
 42
0.000000001
 43
0.0000000001
 44
0.00000001
 40
0.0
 40
0.0
 40
0.0
 40
0.0
 40
0.1109134282643591
 40
0.2340631851714525
 40
0.3637530690068502
 40
0.4934429750577158
 40
0.6165927958823916
 40
0.7275063210920989
 40
0.7275063210920989
 40
0.7275063210920989
 40
0.7275063210920989
 10
-43.04456380758921
 20
273.5942089170815
 30
0.0
 10
-43.01043008732969
 20
273.5797718338186
 30
0.0
 10
-42.93839689882609
 20
273.5493049356512
 30
0.0
 10
-42.81847605317085
 20
273.5267441060358
 30
0.0
 10
-42.69100986196538
 20
273.5180312882549
 30
0.0
 10
-42.56354364136033
 20
273.5267439972115
 30
0.0
 10
-42.44362271679458
 20
273.5493047273822
 30
0.0
 10
-42.37158944115988
 20
273.5797715560466
 30
0.0
 10
-42.33745567323612
 20
273.5942086090717
 30
0.0
 11
-43.04456380758921
 21
273.5942089170815
 31
0.0
 11
-42.94101029541207
 21
273.5544790952279
 31
0.0
 11
-42.82041968378056
 21
273.5295037611529
 31
0.0
 11
-42.69100986799471
 21
273.5209851867334
 31
0.0
 11
-42.56160002252417
 21
273.5295036484134
 31
0.0
 11
-42.44100932386067
 21
273.5544788774321
 31
0.0
 11
-42.33745567323612
 21
273.5942086090717
 31
0.0
  0
SPLINE
  5
489
330
1F
100
AcDbEntity
  8
0
  6
Continuous
 62
     7
100
AcDbSpline
210
0.0
220
0.0
230
1.0
 70
     8
 71
     3
 72
    11
 73
     7
 74
     5
 42
0.000000001
 43
0.0000000001
 44
0.00000001
 40
0.0
 40
0.0
 40
0.0
 40
0.0
 40
0.0683732163910545
 40
0.1418178349211291
 40
0.223632719401918
 40
0.3148611746412289
 40
0.3148611746412289
 40
0.3148611746412289
 40
0.3148611746412289
 10
-41.47745296885441
 20
265.2458125211456
 30
0.0
 10
-41.45809587833227
 20
265.2583025646398
 30
0.0
 10
-41.41794594536657
 20
265.2842090791241
 30
0.0
 10
-41.37745945849658
 20
265.3490974075598
 30
0.0
 10
-41.35175048627799
 20
265.4278625295017
 30
0.0
 10
-41.34897157487775
 20
265.4857376802318
 30
0.0
 10
-41.34750654011882
 20
265.5162494627796
 30
0.0
 11
-41.47745296885441
 21
265.2458125211456
 31
0.0
 11
-41.42274631383857
 21
265.2868256774646
 31
0.0
 11
-41.381640910058
 21
265.3476899390123
 31
0.0
 11
-41.35614570902449
 21
265.4254309865602
 31
0.0
 11
-41.34750654011882
 21
265.5162494627796
 31
0.0
  0
SPLINE
  5
48A
330
1F
100
AcDbEntity
  8
0
  6
Continuous
 62
     7
100
AcDbSpline
210
0.0
220
0.0
230
1.0
 70
     8
 71
     3
 72
    13
 73
     9
 74
     7
 42
0.000000001
 43
0.0000000001
 44
0.00000001
 40
0.0
 40
0.0
 40
0.0
 40
0.0
 40
0.1109135139029589
 40
0.2340630855142913
 40
0.36375268013207
 40
0.4934422711335253
 40
0.6165917029479097
 40
0.727504422518913
 40
0.727504422518913
 40
0.727504422518913
 40
0.727504422518913
 10
-53.43903278365218
 20
270.1290242193258
 30
0.0
 10
-53.40489897735905
 20
270.1145872744024
 30
0.0
 10
-53.33286569358489
 20
270.0841207046719
 30
0.0
 10
-53.21294498572392
 20
270.0615599753704
 30
0.0
 10
-53.08547904036934
 20
270.052847263603
 30
0.0
 10
-52.95801317573813
 20
270.0615600225108
 30
0.0
 10
-52.83809268890542
 20
270.0841205551032
 30
0.0
 10
-52.76605996145329
 20
270.1145876914341
 30
0.0
 10
-52.73192652701081
 20
270.12902485907
 30
0.0
 11
-53.43903278365218
 21
270.1290242193258
 31
0.0
 11
-53.33547904076931
 21
270.0892947597196
 31
0.0
 11
-53.2148885778558
 21
270.0643196212453
 31
0.0
 11
-53.08547904495242
 21
270.05580115258
 31
0.0
 11
-52.95606951688029
 21
270.0643196395939
 31
0.0
 11
-52.83547921553517
 21
270.0892948688683
 31
0.0
 11
-52.73192652701081
 21
270.12902485907
 31
0.0
  0
SPLINE
  5
48B
330
1F
100
AcDbEntity
  8
0
  6
Continuous
 62
     7
100
AcDbSpline
210
0.0
220
0.0
230
1.0
 70
     8
 71
     3
 72
    13
 73
     9
 74
     7
 42
0.000000001
 43
0.0000000001
 44
0.00000001
 40
0.0
 40
0.0
 40
0.0
 40
0.0
 40
0.1109133541817473
 40
0.2340630248514698
 40
0.3637528221709636
 40
0.493442654326622
 40
0.6165924252257983
 40
0.7275059314279184
 40
0.7275059314279184
 40
0.7275059314279184
 40
0.7275059314279184
 10
-53.43903349103167
 20
268.3969740753605
 30
0.0
 10
-53.40489979424244
 20
268.3825370003925
 30
0.0
 10
-53.33286665649415
 20
268.3520701202481
 30
0.0
 10
-53.21294589632089
 20
268.3295092881511
 30
0.0
 10
-53.08547978944394
 20
268.320796450257
 30
0.0
 10
-52.95801363646541
 20
268.3295091175031
 30
0.0
 10
-52.83809275255226
 20
268.3520697936605
 30
0.0
 10
-52.76605947817335
 20
268.382536564817
 30
0.0
 10
-52.73192570664165
 20
268.3969735923688
 30
0.0
 11
-53.43903349103167
 21
268.3969740753605
 31
0.0
 11
-53.33548005029068
 21
268.3572442741285
 31
0.0
 11
-53.21488952657592
 21
268.3322689407812
 31
0.0
 11
-53.08547979889858
 21
268.3237503450121
 31
0.0
 11
-52.95607002467254
 21
268.3322687639939
 31
0.0
 11
-52.83547936448255
 21
268.3572439326018
 31
0.0
 11
-52.73192570664165
 21
268.3969735923688
 31
0.0
  0
SPLINE
  5
48C
330
1F
100
AcDbEntity
  8
0
  6
Continuous
 62
     7
100
AcDbSpline
210
0.0
220
0.0
230
1.0
 70
     8
 71
     3
 72
    11
 73
     7
 74
     5
 42
0.000000001
 43
0.0000000001
 44
0.00000001
 40
0.0
 40
0.0
 40
0.0
 40
0.0
 40
0.0728130159625888
 40
0.136082390264242
 40
0.1909368542364219
 40
0.2406466852234271
 40
0.2406466852234271
 40
0.2406466852234271
 40
0.2406466852234271
 10
-49.05497017597074
 20
270.2354513577043
 30
0.0
 10
-49.03363316380885
 20
270.2472220676818
 30
0.0
 10
-48.99375580070691
 20
270.2692207056926
 30
0.0
 10
-48.94677092031863
 20
270.3126922961581
 30
0.0
 10
-48.91480016351252
 20
270.3605571062385
 30
0.0
 10
-48.91054618621878
 20
270.3955788920147
 30
0.0
 10
-48.90852385367671
 20
270.4122282387533
 30
0.0
 11
-49.05497017597074
 21
270.2354513577043
 31
0.0
 11
-48.99278880657975
 21
270.2733355528333
 31
0.0
 11
-48.9465838837079
 21
270.3165572972568
 31
0.0
 11
-48.91813112056384
 21
270.3634556232693
 31
0.0
 11
-48.90852385367671
 21
270.4122282387533
 31
0.0
  0
SPLINE
  5
48D
330
1F
100
AcDbEntity
  8
0
  6
Continuous
 62
     7
100
AcDbSpline
210
0.0
220
0.0
230
1.0
 70
     8
 71
     3
 72
     9
 73
     5
 74
     3
 42
0.000000001
 43
0.0000000001
 44
0.00000001
 40
0.0
 40
0.0
 40
0.0
 40
0.0
 40
2.036818743652235
 40
4.058664573621396
 40
4.058664573621396
 40
4.058664573621396
 40
4.058664573621396
 10
-32.95130388649471
 20
250.890248267162
 30
0.0
 10
-32.60988900143093
 20
251.4791387414589
 30
0.0
 10
-31.92956903340264
 20
252.6525906901268
 30
0.0
 10
-31.48680297217351
 20
253.9346589596001
 30
0.0
 10
-31.26623665999321
 20
254.5733282442641
 30
0.0
 11
-32.95130388649471
 21
250.890248267162
 31
0.0
 11
-31.98688670789409
 21
252.6842744940424
 31
0.0
 11
-31.26623665999321
 21
254.5733282442641
 31
0.0
  0
SPLINE
  5
48E
330
1F
100
AcDbEntity
  8
0
  6
Continuous
 62
     2
100
AcDbSpline
210
0.0
220
0.0
230
1.0
 70
     8
 71
     3
 72
    13
 73
     9
 74
     7
 42
0.000000001
 43
0.0000000001
 44
0.00000001
 40
0.0
 40
0.0
 40
0.0
 40
0.0
 40
1.624850383204943
 40
3.302148475680002
 40
5.001179463710358
 40
6.689794331718836
 40
8.336526349922853
 40
9.912748014037083
 40
9.912748014037083
 40
9.912748014037083
 40
9.912748014037083
 10
-31.57834348861462
 20
246.9559280405537
 30
0.0
 10
-31.21785441349197
 20
247.3609605101866
 30
0.0
 10
-30.48524023321156
 20
248.1840992936447
 30
0.0
 10
-29.56577253625455
 20
249.5809175943836
 30
0.0
 10
-28.77778796842665
 20
251.077070810483
 30
0.0
 10
-28.16434650036053
 20
252.6418041789712
 30
0.0
 10
-27.71934367106183
 20
254.2232424962345
 30
0.0
 10
-27.58948842828012
 20
255.291030655248
 30
0.0
 10
-27.52598127183003
 20
255.8132444374622
 30
0.0
 11
-31.57834348861462
 21
246.9559280405537
 31
0.0
 11
-30.52726582687866
 21
248.1950303437181
 31
0.0
 11
-29.59332745994316
 21
249.5882596934702
 31
0.0
 11
-28.80490602800792
 21
251.0932839284382
 31
0.0
 11
-28.18595683730638
 21
252.664373383598
 31
0.0
 11
-27.75528688645704
 21
254.2537914335308
 31
0.0
 11
-27.52598127183003
 21
255.8132444374622
 31
0.0
  0
SPLINE
  5
48F
330
1F
100
AcDbEntity
  8
0
  6
Continuous
 62
     2
100
AcDbSpline
210
0.0
220
0.0
230
1.0
 70
     8
 71
     3
 72
    13
 73
     9
 74
     7
 42
0.000000001
 43
0.0000000001
 44
0.00000001
 40
0.0
 40
0.0
 40
0.0
 40
0.0
 40
1.708176231416681
 40
3.471489819000866
 40
5.257650819028838
 40
7.032861536125454
 40
8.764041550089193
 40
10.42109526926374
 40
10.42109526926374
 40
10.42109526926374
 40
10.42109526926374
 10
-31.08098737203562
 20
246.4554757068976
 30
0.0
 10
-30.70201161969581
 20
246.8812791048252
 30
0.0
 10
-29.93182735977411
 20
247.7466302026479
 30
0.0
 10
-28.96520733385081
 20
249.2150803668388
 30
0.0
 10
-28.1368131913968
 20
250.7879595737152
 30
0.0
 10
-27.49191312173602
 20
252.4329358811024
 30
0.0
 10
-27.02408961306421
 20
254.0954737999171
 30
0.0
 10
-26.8875751603736
 20
255.2180204565658
 30
0.0
 10
-26.82081124293302
 20
255.7670144937102
 30
0.0
 11
-31.08098737203562
 21
246.4554757068976
 31
0.0
 11
-29.9760081249604
 21
247.7581218223346
 31
0.0
 11
-28.99417533850315
 21
249.2227989850521
 31
0.0
 11
-28.16532192813053
 21
250.8050041380655
 31
0.0
 11
-27.51463168681227
 21
252.4566624878749
 31
0.0
 11
-27.061876081481
 21
254.1275893585201
 31
0.0
 11
-26.82081124293302
 21
255.7670144937102
 31
0.0
  0
ARC
  5
490
102
{ACAD_REACTORS
330
4C2
102
}
330
1F
100
AcDbEntity
  8
1
  6
Continuous
 62
     7
100
AcDbCircle
 10
-15.65703264459069
 20
10.07749983983257
 30
0.0
 40
0.3333333333332007
100
AcDbArc
 50
180.0
 51
299.9816393688464
  0
ARC
  5
491
102
{ACAD_REACTORS
330
4C2
102
}
330
1F
100
AcDbEntity
  8
1
  6
Continuous
 62
     7
100
AcDbCircle
 10
-15.65703264459069
 20
14.92250016016737
 30
0.0
 40
0.3333333333333598
100
AcDbArc
 50
60.0183606311539
 51
180.0
  0
ARC
  5
492
330
1F
100
AcDbEntity
  8
1
  6
Continuous
 62
     7
100
AcDbCircle
 10
-9.99055111169739
 20
12.5
 30
0.0
 40
0.1666666666665779
100
AcDbArc
 50
299.9816393688268
 51
60.01836063115454
  0
ARC
  5
493
330
1F
100
AcDbEntity
  8
1
  6
Continuous
 62
     7
100
AcDbCircle
 10
-26.65684751081719
 20
12.5
 30
0.0
 40
0.1666666666665959
100
AcDbArc
 50
119.9816393689121
 51
240.0183606311065
  0
ARC
  5
494
102
{ACAD_REACTORS
330
4C4
102
}
330
1F
100
AcDbEntity
  8
1
  6
Continuous
 62
     7
100
AcDbCircle
 10
-20.65703264459069
 20
10.2700211480327
 30
0.0
 40
0.6666666666666003
100
AcDbArc
 50
180.0000000000104
 51
240.018360631158
  0
ARC
  5
495
102
{ACAD_REACTORS
330
4C5
102
}
330
1F
100
AcDbEntity
  8
1
  6
Continuous
 62
     7
100
AcDbCircle
 10
-18.32369931125729
 20
12.83333333333326
 30
0.0
 40
0.1666666666667028
100
AcDbArc
 50
209.9999999999634
 51
330.0000000000195
  0
MTEXT
  5
497
330
1F
100
AcDbEntity
  8
1
 62
     7
100
AcDbMText
 10
-40.32369931125729
 20
10.0606394207561
 30
0.0
 40
4.5
 41
0.0
 71
     5
 72
     1
  1
1:1
  7
CONVERTER_11
 73
     1
 44
1.32052821128451
  0
MTEXT
  5
498
330
1F
100
AcDbEntity
  8
1
 62
     7
100
AcDbMText
 10
-40.32369931125729
 20
16.26063942075598
 30
0.0
 40
3.0
 41
0.0
 71
     5
 72
     1
  1
Scale
  7
CONVERTER_11
 73
     1
 44
1.32052821128451
  0
MTEXT
  5
499
330
1F
100
AcDbEntity
  8
1
 62
     7
100
AcDbMText
 10
-176.4
 20
8.75
 30
0.0
 40
3.0
 41
0.0
 71
     4
 72
     1
  1
T.Tedeschi
  7
CONVERTER_11
 73
     1
 44
1.32052821128451
  0
MTEXT
  5
49A
330
1F
100
AcDbEntity
  8
1
 62
     7
100
AcDbMText
 10
-187.0
 20
8.75
 30
0.0
 40
3.0
 41
0.0
 71
     4
 72
     1
  1
Sign.
  7
CONVERTER_11
 73
     1
 44
1.32052821128451
  0
MTEXT
  5
49B
330
1F
100
AcDbEntity
  8
1
 62
     7
100
AcDbMText
 10
-176.4
 20
16.26063942075598
 30
0.0
 40
3.0
 41
0.0
 71
     4
 72
     1
  1
11/02/09
  7
CONVERTER_11
 73
     1
 44
1.32052821128451
  0
MTEXT
  5
49C
330
1F
100
AcDbEntity
  8
1
 62
     7
100
AcDbMText
 10
-187.0
 20
16.26063942075598
 30
0.0
 40
3.0
 41
0.0
 71
     4
 72
     1
  1
Date
  7
CONVERTER_11
 73
     1
 44
1.32052821128451
  0
MTEXT
  5
49D
330
1F
100
AcDbEntity
  8
1
 62
     7
100
AcDbMText
 10
-194.0000000000001
 20
151.4999999999998
 30
0.0
 40
4.0
 41
0.0
 71
     5
 72
     1
  1
Diritti riservati      All rights reserved
  7
CONVERTER_11
 11
0.0
 21
1.0
 31
0.0
 73
     1
 44
1.32052821128451
  0
MTEXT
  5
49F
330
1F
100
AcDbEntity
  8
1
 62
     7
100
AcDbMText
 10
-152.7236993112573
 20
12.65304352946998
 30
0.0
 40
4.5
 41
0.0
 71
     4
 72
     1
  1
CX 01 YM\Pmale modular, crimp, 1P 200A 1000V
  7
CONVERTER_12
 73
     1
 44
0.90036014405762
  0
DIMENSION
  5
4AB
330
1F
100
AcDbEntity
  8
1
100
AcDbDimension
  2
*D1
 10
-150.0
 20
203.210245573969
 30
0.0
 11
-135.3000001907349
 21
206.860245573969
 31
0.0
 70
    32
  1
<>
 71
     5
 42
-1.0
 53
0.00013888888889
  3
ME10_DIM_10
100
AcDbAlignedDimension
 13
-120.6000003814697
 23
193.1360289190317
 33
0.0
 14
-150.0
 24
193.1360289190317
 34
0.0
100
AcDbRotatedDimension
  0
DIMENSION
  5
4B6
330
1F
100
AcDbEntity
  8
1
100
AcDbDimension
  2
*D2
 10
-74.0
 20
203.210245573969
 30
0.0
 11
-59.0
 21
206.710245573969
 31
0.0
 70
    32
  1
<>
 71
     5
 42
-1.0
 53
0.00013888888889
  3
ME10_DIM_11
100
AcDbAlignedDimension
 13
-44.0
 23
181.7059780691171
 33
0.0
 14
-74.0
 24
181.7059780691171
 34
0.0
100
AcDbRotatedDimension
  0
DIMENSION
  5
4C1
330
1F
100
AcDbEntity
  8
1
100
AcDbDimension
  2
*D3
 10
-26.7629752527608
 20
193.1360289190316
 30
0.0
 11
-30.4129752527608
 21
166.9860293005013
 31
0.0
 70
    32
  1
<>
 71
     5
 42
-1.0
 53
90.0
  3
ME10_DIM_12
100
AcDbAlignedDimension
 13
-44.0
 23
140.836029681971
 33
0.0
 14
-45.0
 24
193.1360289190316
 34
0.0
 50
90.0
100
AcDbRotatedDimension
  0
HATCH
  5
4C2
330
1F
100
AcDbEntity
  8
1
  6
Continuous
 62
     7
100
AcDbHatch
 10
0.0
 20
0.0
 30
0.0
210
0.0
220
0.0
230
1.0
  2
SOLID
 70
     1
 71
     1
 91
        1
 92
        1
 93
       14
 72
     1
 10
-14.4902734624205
 20
13.86454086225376
 11
-15.32369931125729
 21
14.345363467352
 72
     1
 10
-15.32369931125729
 20
14.345363467352
 11
-15.32369931125729
 21
12.83333333333326
 72
     1
 10
-15.32369931125729
 20
12.83333333333326
 11
-14.32369931125729
 21
12.83333333333326
 72
     2
 10
-14.32369931125729
 20
12.5
 40
0.3333333333334298
 50
270.0
 51
450.0
 73
     0
 72
     1
 10
-14.32369931125729
 20
12.16666666666657
 11
-15.32369931125729
 21
12.16666666666657
 72
     1
 10
-15.32369931125729
 20
12.16666666666657
 11
-15.32369931125729
 21
10.654636532648
 72
     1
 10
-15.32369931125729
 20
10.654636532648
 11
-14.4902734624205
 21
11.13545913774618
 72
     2
 10
-14.32369931125729
 20
10.84673060906317
 40
0.3333333333333121
 50
240.0183606311602
 51
420.0183606311651
 73
     0
 72
     1
 10
-14.15712516009418
 20
10.55800208038028
 11
-15.4904584934275
 21
9.788771311149674
 72
     2
 10
-15.65703264459069
 20
10.07749983983257
 40
0.3333333333332007
 50
60.01836063115361
 51
180.0
 73
     0
 72
     1
 10
-15.99036597792389
 20
10.07749983983257
 11
-15.99036597792389
 21
14.92250016016737
 72
     2
 10
-15.65703264459069
 20
14.92250016016737
 40
0.3333333333333598
 50
180.0
 51
299.9816393688461
 73
     0
 72
     1
 10
-15.4904584934275
 20
15.21122868885027
 11
-14.15712516009418
 21
14.44199791961938
 72
     2
 10
-14.32369931125729
 20
14.15326939093666
 40
0.333333333333372
 50
299.9816393688496
 51
479.9816393688491
 73
     0
 97
       14
330
57
330
491
330
6A
330
490
330
50
330
46B
330
51
330
52
330
53
330
46C
330
54
330
55
330
56
330
46D
 75
     0
 76
     1
 98
        1
 10
0.0
 20
0.0
  0
HATCH
  5
4C3
330
1F
100
AcDbEntity
  8
1
  6
Continuous
 62
     7
100
AcDbHatch
 10
0.0
 20
0.0
 30
0.0
210
0.0
220
0.0
230
1.0
  2
SOLID
 70
     1
 71
     1
 91
        1
 92
        1
 93
        4
 72
     1
 10
-21.99036597792409
 20
14.15326939093666
 11
-21.99036597792409
 21
10.84673060906317
 72
     2
 10
-22.32369931125729
 20
10.84673060906317
 40
0.3333333333333997
 50
0.0
 51
180.0
 73
     0
 72
     1
 10
-22.65703264459069
 20
10.84673060906317
 11
-22.65703264459069
 21
14.15326939093666
 72
     2
 10
-22.32369931125729
 20
14.15326939093666
 40
0.3333333333332007
 50
180.0
 51
360.0
 73
     0
 97
        4
330
59
330
46E
330
58
330
46F
 75
     0
 76
     1
 98
        1
 10
0.0
 20
0.0
  0
HATCH
  5
4C4
330
1F
100
AcDbEntity
  8
1
  6
Continuous
 62
     7
100
AcDbHatch
 10
0.0
 20
0.0
 30
0.0
210
0.0
220
0.0
230
1.0
  2
SOLID
 70
     1
 71
     1
 91
        1
 92
        1
 93
        7
 72
     1
 10
-20.65703264459069
 20
14.92250016016737
 11
-20.65703264459069
 21
10.2700211480327
 72
     1
 10
-20.65703264459069
 20
10.2700211480327
 11
-18.4904584934275
 21
9.020074522361597
 72
     2
 10
-18.65703264459069
 20
8.731345993678701
 40
0.3333333333333673
 50
299.9816393688464
 51
479.9816393688495
 73
     0
 72
     1
 10
-18.8236067957539
 20
8.442617464995806
 11
-20.99018094691701
 21
9.692564090666906
 72
     2
 10
-20.65703264459069
 20
10.2700211480327
 40
0.6666666666666003
 50
119.981639368842
 51
179.9999999999896
 73
     0
 72
     1
 10
-21.32369931125729
 20
10.27002114803258
 11
-21.32369931125729
 21
14.92250016016737
 72
     2
 10
-20.99036597792409
 20
14.92250016016737
 40
0.3333333333333997
 50
180.0
 51
360.0
 73
     0
 97
        7
330
5C
330
5B
330
470
330
5A
330
494
330
5D
330
471
 75
     0
 76
     1
 98
        1
 10
0.0
 20
0.0
  0
HATCH
  5
4C5
330
1F
100
AcDbEntity
  8
1
  6
Continuous
 62
     7
100
AcDbHatch
 10
0.0
 20
0.0
 30
0.0
210
0.0
220
0.0
230
1.0
  2
SOLID
 70
     1
 71
     1
 91
        1
 92
        1
 93
       13
 72
     2
 10
-19.72539976544869
 20
15.73121731203457
 40
0.2649662124752854
 50
30.00000000001921
 51
180.0
 73
     1
 72
     1
 10
-19.99036597792409
 20
15.73121731203457
 11
-19.99036597792409
 21
10.84758507263291
 72
     2
 10
-19.65703264459069
 20
10.84758507263291
 40
0.3333333333333997
 50
180.0
 51
360.0
 73
     1
 72
     1
 10
-19.32369931125729
 20
10.84758507263291
 11
-19.32369931125729
 21
14.23205080756878
 72
     1
 10
-19.32369931125729
 20
14.23205080756878
 11
-18.46803687855478
 21
12.75
 72
     2
 10
-18.32369931125729
 20
12.83333333333326
 40
0.1666666666667028
 50
209.9999999999634
 51
330.0000000000195
 73
     1
 72
     1
 10
-18.1793617439599
 20
12.75
 11
-17.32369931125729
 21
14.23205080756878
 72
     1
 10
-17.32369931125729
 20
14.23205080756878
 11
-17.32369931125729
 21
9.308269070601796
 72
     2
 10
-16.99036597792389
 20
9.308269070601796
 40
0.3333333333333997
 50
180.0
 51
360.0
 73
     1
 72
     1
 10
-16.65703264459069
 20
9.308269070601796
 11
-16.65703264459069
 21
15.73121731203457
 72
     2
 10
-16.921998857066
 20
15.73121731203457
 40
0.2649662124753114
 50
0.0
 51
149.9999999999689
 73
     1
 72
     1
 10
-17.15146632821399
 20
15.86370041827229
 11
-18.32369931125729
 21
13.83333333333326
 72
     1
 10
-18.32369931125729
 20
13.83333333333326
 11
-19.49593229430059
 21
15.86370041827229
 97
       13
330
5E
330
472
330
5F
330
473
330
69
330
68
330
495
330
67
330
66
330
474
330
61
330
475
330
60
 75
     0
 76
     1
 98
        1
 10
0.0
 20
0.0
  0
ENDSEC
  0
SECTION
  2
OBJECTS
  0
DICTIONARY
  5
C
330
0
100
AcDbDictionary
281
     1
  3
ACAD_GROUP
350
D
  3
ACAD_LAYOUT
350
1A
  3
ACAD_MATERIAL
350
3B
  3
ACAD_MLEADERSTYLE
350
4C8
  3
ACAD_MLINESTYLE
350
17
  3
ACAD_PLOTSETTINGS
350
19
  3
ACAD_PLOTSTYLENAME
350
E
  3
ACAD_VISUALSTYLE
350
2A
  3
AcDbVariableDictionary
350
4C6
  0
DICTIONARY
  5
D
102
{ACAD_REACTORS
330
C
102
}
330
C
100
AcDbDictionary
281
     1
  0
DICTIONARY
  5
1A
102
{ACAD_REACTORS
330
C
102
}
330
C
100
AcDbDictionary
281
     1
  3
Layout1
350
1E
  3
Layout2
350
26
  3
Model
350
22
  0
DICTIONARY
  5
3B
102
{ACAD_REACTORS
330
C
102
}
330
C
100
AcDbDictionary
281
     1
  3
ByBlock
350
3D
  3
ByLayer
350
3C
  3
Global
350
3E
  0
DICTIONARY
  5
4C8
102
{ACAD_REACTORS
330
C
102
}
330
C
100
AcDbDictionary
281
     1
  0
DICTIONARY
  5
17
102
{ACAD_REACTORS
330
C
102
}
330
C
100
AcDbDictionary
281
     1
  3
Standard
350
18
  0
DICTIONARY
  5
19
102
{ACAD_REACTORS
330
C
102
}
330
C
100
AcDbDictionary
281
     1
  0
ACDBDICTIONARYWDFLT
  5
E
102
{ACAD_REACTORS
330
C
102
}
330
C
100
AcDbDictionary
281
     1
  3
Normal
350
F
100
AcDbDictionaryWithDefault
340
F
  0
DICTIONARY
  5
2A
102
{ACAD_REACTORS
330
C
102
}
330
C
100
AcDbDictionary
281
     1
  3
2dWireframe
350
2F
  3
3D Hidden
350
31
  3
3dWireframe
350
30
  3
Basic
350
32
  3
Brighten
350
36
  3
ColorChange
350
3A
  3
Conceptual
350
34
  3
Dim
350
35
  3
Facepattern
350
39
  3
Flat
350
2B
  3
FlatWithEdges
350
2C
  3
Gouraud
350
2D
  3
GouraudWithEdges
350
2E
  3
Linepattern
350
38
  3
Realistic
350
33
  3
Thicken
350
37
  0
DICTIONARY
  5
4C6
102
{ACAD_REACTORS
330
C
102
}
330
C
100
AcDbDictionary
281
     1
  3
DIMASSOC
350
4C9
  3
HIDETEXT
350
4CA
  0
LAYOUT
  5
1E
102
{ACAD_REACTORS
330
1A
102
}
330
1A
100
AcDbPlotSettings
  1

  2
none_device
  4

  6

 40
0.0
 41
0.0
 42
0.0
 43
0.0
 44
0.0
 45
0.0
 46
0.0
 47
0.0
 48
0.0
 49
0.0
140
0.0
141
0.0
142
1.0
143
1.0
 70
   688
 72
     0
 73
     0
 74
     5
  7

 75
    16
147
1.0
148
0.0
149
0.0
100
AcDbLayout
  1
Layout1
 70
     1
 71
     1
 10
0.0
 20
0.0
 11
12.0
 21
9.0
 12
0.0
 22
0.0
 32
0.0
 14
1.00000000000000E+20
 24
1.00000000000000E+20
 34
1.00000000000000E+20
 15
-1.00000000000000E+20
 25
-1.00000000000000E+20
 35
-1.00000000000000E+20
146
0.0
 13
0.0
 23
0.0
 33
0.0
 16
1.0
 26
0.0
 36
0.0
 17
0.0
 27
1.0
 37
0.0
 76
     0
330
1B
  0
LAYOUT
  5
26
102
{ACAD_REACTORS
330
1A
102
}
330
1A
100
AcDbPlotSettings
  1

  2
none_device
  4

  6

 40
0.0
 41
0.0
 42
0.0
 43
0.0
 44
0.0
 45
0.0
 46
0.0
 47
0.0
 48
0.0
 49
0.0
140
0.0
141
0.0
142
1.0
143
1.0
 70
   688
 72
     0
 73
     0
 74
     5
  7

 75
    16
147
1.0
148
0.0
149
0.0
100
AcDbLayout
  1
Layout2
 70
     1
 71
     2
 10
0.0
 20
0.0
 11
0.0
 21
0.0
 12
0.0
 22
0.0
 32
0.0
 14
0.0
 24
0.0
 34
0.0
 15
0.0
 25
0.0
 35
0.0
146
0.0
 13
0.0
 23
0.0
 33
0.0
 16
1.0
 26
0.0
 36
0.0
 17
0.0
 27
1.0
 37
0.0
 76
     0
330
23
  0
LAYOUT
  5
22
102
{ACAD_REACTORS
330
1A
102
}
330
1A
100
AcDbPlotSettings
  1

  2
none_device
  4

  6

 40
0.0
 41
0.0
 42
0.0
 43
0.0
 44
0.0
 45
0.0
 46
0.0
 47
0.0
 48
0.0
 49
0.0
140
0.0
141
0.0
142
1.0
143
1.0
 70
  1712
 72
     0
 73
     0
 74
     0
  7

 75
     0
147
1.0
148
0.0
149
0.0
100
AcDbLayout
  1
Model
 70
     1
 71
     0
 10
0.0
 20
0.0
 11
12.0
 21
9.0
 12
0.0
 22
0.0
 32
0.0
 14
-210.0000000000001
 24
0.0
 34
0.0
 15
0.0
 25
297.0000000000001
 35
0.0
146
0.0
 13
0.0
 23
0.0
 33
0.0
 16
1.0
 26
0.0
 36
0.0
 17
0.0
 27
1.0
 37
0.0
 76
     0
330
1F
331
29
  0
MATERIAL
  5
3D
102
{ACAD_REACTORS
330
3B
102
}
102
{ACAD_XDICTIONARY
360
4ED
102
}
330
3B
100
AcDbMaterial
  1
ByBlock
  0
MATERIAL
  5
3C
102
{ACAD_REACTORS
330
3B
102
}
102
{ACAD_XDICTIONARY
360
4EB
102
}
330
3B
100
AcDbMaterial
  1
ByLayer
  0
MATERIAL
  5
3E
102
{ACAD_REACTORS
330
3B
102
}
102
{ACAD_XDICTIONARY
360
4EF
102
}
330
3B
100
AcDbMaterial
  1
Global
  0
MLINESTYLE
  5
18
102
{ACAD_REACTORS
330
17
102
}
330
17
100
AcDbMlineStyle
  2
Standard
 70
     0
  3

 62
   256
 51
90.0
 52
90.0
 71
     2
 49
0.5
 62
   256
  6
BYLAYER
 49
-0.5
 62
   256
  6
BYLAYER
  0
ACDBPLACEHOLDER
  5
F
102
{ACAD_REACTORS
330
E
102
}
330
E
  0
VISUALSTYLE
  5
2F
102
{ACAD_REACTORS
330
2A
102
}
102
{ACAD_XDICTIONARY
360
4D3
102
}
330
2A
100
AcDbVisualStyle
  2
2dWireframe
 70
     4
 71
     0
 72
     2
 73
     0
 90
        0
 40
-0.6
 41
-30.0
 62
     5
 63
     7
 74
     1
 91
        4
 64
     7
 65
   257
 75
     1
175
     1
 42
1.0
 92
        0
 66
   257
 43
1.0
 76
     1
 77
     6
 78
     2
 67
     7
 79
     5
170
     0
171
     0
290
     0
174
     0
 93
        1
 44
0.0
173
     0
291
     0
 45
0.0
1001
ACAD
1000
AcDbSavedByObjectVersion
1070
     0
  0
VISUALSTYLE
  5
31
102
{ACAD_REACTORS
330
2A
102
}
102
{ACAD_XDICTIONARY
360
4D7
102
}
330
2A
100
AcDbVisualStyle
  2
3D Hidden
 70
     6
 71
     1
 72
     2
 73
     2
 90
        0
 40
-0.6
 41
-30.0
 62
     5
 63
     7
 74
     2
 91
        2
 64
     7
 65
   257
 75
     2
175
     1
 42
40.0
 92
        0
 66
   257
 43
1.0
 76
     1
 77
     6
 78
     2
 67
     7
 79
     3
170
     0
171
     0
290
     0
174
     0
 93
        1
 44
0.0
173
     0
291
     0
 45
0.0
1001
ACAD
1000
AcDbSavedByObjectVersion
1070
     0
  0
VISUALSTYLE
  5
30
102
{ACAD_REACTORS
330
2A
102
}
102
{ACAD_XDICTIONARY
360
4D5
102
}
330
2A
100
AcDbVisualStyle
  2
3dWireframe
 70
     5
 71
     0
 72
     2
 73
     0
 90
        0
 40
-0.6
 41
-30.0
 62
     5
 63
     7
 74
     1
 91
        4
 64
     7
 65
   257
 75
     1
175
     1
 42
1.0
 92
        0
 66
   257
 43
1.0
 76
     1
 77
     6
 78
     2
 67
     7
 79
     5
170
     0
171
     0
290
     0
174
     0
 93
        1
 44
0.0
173
     0
291
     0
 45
0.0
1001
ACAD
1000
AcDbSavedByObjectVersion
1070
     0
  0
VISUALSTYLE
  5
32
102
{ACAD_REACTORS
330
2A
102
}
102
{ACAD_XDICTIONARY
360
4D9
102
}
330
2A
100
AcDbVisualStyle
  2
Basic
 70
     7
 71
     1
 72
     0
 73
     1
 90
        0
 40
-0.6
 41
-30.0
 62
     5
 63
     7
 74
     0
 91
        4
 64
     7
 65
   257
 75
     1
175
     1
 42
1.0
 92
        8
 66
     7
 43
1.0
 76
     1
 77
     6
 78
     2
 67
     7
 79
     5
170
     0
171
     0
290
     0
174
     0
 93
        1
 44
0.0
173
     0
291
     1
 45
0.0
1001
ACAD
1000
AcDbSavedByObjectVersion
1070
     0
  0
VISUALSTYLE
  5
36
102
{ACAD_REACTORS
330
2A
102
}
102
{ACAD_XDICTIONARY
360
4E1
102
}
330
2A
100
AcDbVisualStyle
  2
Brighten
 70
    12
 71
     2
 72
     2
 73
     0
 90
        0
 40
-0.6
 41
-30.0
 62
     5
 63
     7
 74
     1
 91
        4
 64
     7
 65
   257
 75
     1
175
     1
 42
1.0
 92
        8
 66
     7
 43
1.0
 76
     1
 77
     6
 78
     2
 67
     7
 79
     5
170
     0
171
     0
290
     0
174
     0
 93
        1
 44
50.0
173
     0
291
     1
 45
0.0
1001
ACAD
1000
AcDbSavedByObjectVersion
1070
     0
  0
VISUALSTYLE
  5
3A
102
{ACAD_REACTORS
330
2A
102
}
102
{ACAD_XDICTIONARY
360
4E9
102
}
330
2A
100
AcDbVisualStyle
  2
ColorChange
 70
    16
 71
     2
 72
     2
 73
     3
 90
        0
 40
-0.6
 41
-30.0
 62
     5
 63
     8
 74
     1
 91
        4
 64
     7
 65
   257
 75
     1
175
     1
 42
1.0
 92
        8
 66
     8
 43
1.0
 76
     1
 77
     6
 78
     2
 67
     7
 79
     5
170
     0
171
     0
290
     0
174
     0
 93
        1
 44
0.0
173
     0
291
     1
 45
0.0
1001
ACAD
1000
AcDbSavedByObjectVersion
1070
     0
  0
VISUALSTYLE
  5
34
102
{ACAD_REACTORS
330
2A
102
}
102
{ACAD_XDICTIONARY
360
4DD
102
}
330
2A
100
AcDbVisualStyle
  2
Conceptual
 70
     9
 71
     3
 72
     2
 73
     0
 90
        0
 40
-0.6
 41
-30.0
 62
     5
 63
     7
 74
     2
 91
        2
 64
     7
 65
   257
 75
     1
175
     1
 42
40.0
 92
        8
 66
     7
 43
1.0
 76
     1
 77
     6
 78
     2
 67
     7
 79
     3
170
     0
171
     0
290
     0
174
     0
 93
        1
 44
0.0
173
     0
291
     0
 45
0.0
1001
ACAD
1000
AcDbSavedByObjectVersion
1070
     0
  0
VISUALSTYLE
  5
35
102
{ACAD_REACTORS
330
2A
102
}
102
{ACAD_XDICTIONARY
360
4DF
102
}
330
2A
100
AcDbVisualStyle
  2
Dim
 70
    11
 71
     2
 72
     2
 73
     0
 90
        0
 40
-0.6
 41
-30.0
 62
     5
 63
     7
 74
     1
 91
        4
 64
     7
 65
   257
 75
     1
175
     1
 42
1.0
 92
        8
 66
     7
 43
1.0
 76
     1
 77
     6
 78
     2
 67
     7
 79
     5
170
     0
171
     0
290
     0
174
     0
 93
        1
 44
-50.0
173
     0
291
     1
 45
0.0
1001
ACAD
1000
AcDbSavedByObjectVersion
1070
     0
  0
VISUALSTYLE
  5
39
102
{ACAD_REACTORS
330
2A
102
}
102
{ACAD_XDICTIONARY
360
4E7
102
}
330
2A
100
AcDbVisualStyle
  2
Facepattern
 70
    15
 71
     2
 72
     2
 73
     0
 90
        0
 40
-0.6
 41
-30.0
 62
     5
 63
     7
 74
     1
 91
        4
 64
     7
 65
   257
 75
     1
175
     1
 42
1.0
 92
        8
 66
     7
 43
1.0
 76
     1
 77
     6
 78
     2
 67
     7
 79
     5
170
     0
171
     0
290
     0
174
     0
 93
        1
 44
0.0
173
     0
291
     1
 45
0.0
1001
ACAD
1000
AcDbSavedByObjectVersion
1070
     0
  0
VISUALSTYLE
  5
2B
102
{ACAD_REACTORS
330
2A
102
}
102
{ACAD_XDICTIONARY
360
4CB
102
}
330
2A
100
AcDbVisualStyle
  2
Flat
 70
     0
 71
     2
 72
     1
 73
     1
 90
        2
 40
-0.6
 41
30.0
 62
     5
 63
     7
 74
     0
 91
        4
 64
     7
 65
   257
 75
     1
175
     1
 42
1.0
 92
        8
 66
     7
 43
1.0
 76
     1
 77
     6
 78
     2
 67
     7
 79
     5
170
     0
171
     0
290
     0
174
     0
 93
       13
 44
0.0
173
     0
291
     1
 45
0.0
1001
ACAD
1000
AcDbSavedByObjectVersion
1070
     0
  0
VISUALSTYLE
  5
2C
102
{ACAD_REACTORS
330
2A
102
}
102
{ACAD_XDICTIONARY
360
4CD
102
}
330
2A
100
AcDbVisualStyle
  2
FlatWithEdges
 70
     1
 71
     2
 72
     1
 73
     1
 90
        2
 40
-0.6
 41
30.0
 62
     5
 63
     7
 74
     1
 91
        4
 64
     7
 65
   257
 75
     1
175
     1
 42
1.0
 92
        0
 66
   257
 43
1.0
 76
     1
 77
     6
 78
     2
 67
     7
 79
     5
170
     0
171
     0
290
     0
174
     0
 93
       13
 44
0.0
173
     0
291
     1
 45
0.0
1001
ACAD
1000
AcDbSavedByObjectVersion
1070
     0
  0
VISUALSTYLE
  5
2D
102
{ACAD_REACTORS
330
2A
102
}
102
{ACAD_XDICTIONARY
360
4CF
102
}
330
2A
100
AcDbVisualStyle
  2
Gouraud
 70
     2
 71
     2
 72
     2
 73
     1
 90
        2
 40
-0.6
 41
30.0
 62
     5
 63
     7
 74
     0
 91
        4
 64
     7
 65
   257
 75
     1
175
     1
 42
1.0
 92
        0
 66
     7
 43
1.0
 76
     1
 77
     6
 78
     2
 67
     7
 79
     5
170
     0
171
     0
290
     0
174
     0
 93
       13
 44
0.0
173
     0
291
     1
 45
0.0
1001
ACAD
1000
AcDbSavedByObjectVersion
1070
     0
  0
VISUALSTYLE
  5
2E
102
{ACAD_REACTORS
330
2A
102
}
102
{ACAD_XDICTIONARY
360
4D1
102
}
330
2A
100
AcDbVisualStyle
  2
GouraudWithEdges
 70
     3
 71
     2
 72
     2
 73
     1
 90
        2
 40
-0.6
 41
30.0
 62
     5
 63
     7
 74
     1
 91
        4
 64
     7
 65
   257
 75
     1
175
     1
 42
1.0
 92
        0
 66
   257
 43
1.0
 76
     1
 77
     6
 78
     2
 67
     7
 79
     5
170
     0
171
     0
290
     0
174
     0
 93
       13
 44
0.0
173
     0
291
     1
 45
0.0
1001
ACAD
1000
AcDbSavedByObjectVersion
1070
     0
  0
VISUALSTYLE
  5
38
102
{ACAD_REACTORS
330
2A
102
}
102
{ACAD_XDICTIONARY
360
4E5
102
}
330
2A
100
AcDbVisualStyle
  2
Linepattern
 70
    14
 71
     2
 72
     2
 73
     0
 90
        0
 40
-0.6
 41
-30.0
 62
     5
 63
     7
 74
     1
 91
        4
 64
     7
 65
   257
 75
     7
175
     7
 42
1.0
 92
        8
 66
     7
 43
1.0
 76
     1
 77
     6
 78
     2
 67
     7
 79
     5
170
     0
171
     0
290
     0
174
     0
 93
        1
 44
0.0
173
     0
291
     1
 45
0.0
1001
ACAD
1000
AcDbSavedByObjectVersion
1070
     0
  0
VISUALSTYLE
  5
33
102
{ACAD_REACTORS
330
2A
102
}
102
{ACAD_XDICTIONARY
360
4DB
102
}
330
2A
100
AcDbVisualStyle
  2
Realistic
 70
     8
 71
     2
 72
     2
 73
     0
 90
        0
 40
-0.6
 41
-30.0
 62
     5
 63
     7
 74
     1
 91
        0
 64
     7
 65
   257
 75
     1
175
     1
 42
1.0
 92
        8
 66
     8
 43
1.0
 76
     1
 77
     6
 78
     2
 67
     7
 79
     5
170
     0
171
     0
290
     0
174
     0
 93
       13
 44
0.0
173
     0
291
     0
 45
0.0
1001
ACAD
1000
AcDbSavedByObjectVersion
1070
     0
  0
VISUALSTYLE
  5
37
102
{ACAD_REACTORS
330
2A
102
}
102
{ACAD_XDICTIONARY
360
4E3
102
}
330
2A
100
AcDbVisualStyle
  2
Thicken
 70
    13
 71
     2
 72
     2
 73
     0
 90
        0
 40
-0.6
 41
-30.0
 62
     5
 63
     7
 74
     1
 91
        4
 64
     7
 65
   257
 75
     1
175
     1
 42
1.0
 92
       12
 66
     7
 43
1.0
 76
     1
 77
     6
 78
     2
 67
     7
 79
     5
170
     0
171
     0
290
     0
174
     0
 93
        1
 44
0.0
173
     0
291
     1
 45
0.0
1001
ACAD
1000
AcDbSavedByObjectVersion
1070
     0
  0
DICTIONARYVAR
  5
4C9
102
{ACAD_REACTORS
330
4C6
102
}
330
4C6
100
DictionaryVariables
280
     0
  1
2
  0
DICTIONARYVAR
  5
4CA
102
{ACAD_REACTORS
330
4C6
102
}
330
4C6
100
DictionaryVariables
280
     0
  1
1
  0
DICTIONARY
  5
4ED
330
3D
100
AcDbDictionary
280
     1
281
     1
  3
ACAD_XREC_ROUNDTRIP
360
4EE
  0
DICTIONARY
  5
4EB
330
3C
100
AcDbDictionary
280
     1
281
     1
  3
ACAD_XREC_ROUNDTRIP
360
4EC
  0
DICTIONARY
  5
4EF
330
3E
100
AcDbDictionary
280
     1
281
     1
  3
ACAD_XREC_ROUNDTRIP
360
4F0
  0
DICTIONARY
  5
4D3
330
2F
100
AcDbDictionary
280
     1
281
     1
  3
ACAD_XREC_ROUNDTRIP
360
4D4
  0
DICTIONARY
  5
4D7
330
31
100
AcDbDictionary
280
     1
281
     1
  3
ACAD_XREC_ROUNDTRIP
360
4D8
  0
DICTIONARY
  5
4D5
330
30
100
AcDbDictionary
280
     1
281
     1
  3
ACAD_XREC_ROUNDTRIP
360
4D6
  0
DICTIONARY
  5
4D9
330
32
100
AcDbDictionary
280
     1
281
     1
  3
ACAD_XREC_ROUNDTRIP
360
4DA
  0
DICTIONARY
  5
4E1
330
36
100
AcDbDictionary
280
     1
281
     1
  3
ACAD_XREC_ROUNDTRIP
360
4E2
  0
DICTIONARY
  5
4E9
330
3A
100
AcDbDictionary
280
     1
281
     1
  3
ACAD_XREC_ROUNDTRIP
360
4EA
  0
DICTIONARY
  5
4DD
330
34
100
AcDbDictionary
280
     1
281
     1
  3
ACAD_XREC_ROUNDTRIP
360
4DE
  0
DICTIONARY
  5
4DF
330
35
100
AcDbDictionary
280
     1
281
     1
  3
ACAD_XREC_ROUNDTRIP
360
4E0
  0
DICTIONARY
  5
4E7
330
39
100
AcDbDictionary
280
     1
281
     1
  3
ACAD_XREC_ROUNDTRIP
360
4E8
  0
DICTIONARY
  5
4CB
330
2B
100
AcDbDictionary
280
     1
281
     1
  3
ACAD_XREC_ROUNDTRIP
360
4CC
  0
DICTIONARY
  5
4CD
330
2C
100
AcDbDictionary
280
     1
281
     1
  3
ACAD_XREC_ROUNDTRIP
360
4CE
  0
DICTIONARY
  5
4CF
330
2D
100
AcDbDictionary
280
     1
281
     1
  3
ACAD_XREC_ROUNDTRIP
360
4D0
  0
DICTIONARY
  5
4D1
330
2E
100
AcDbDictionary
280
     1
281
     1
  3
ACAD_XREC_ROUNDTRIP
360
4D2
  0
DICTIONARY
  5
4E5
330
38
100
AcDbDictionary
280
     1
281
     1
  3
ACAD_XREC_ROUNDTRIP
360
4E6
  0
DICTIONARY
  5
4DB
330
33
100
AcDbDictionary
280
     1
281
     1
  3
ACAD_XREC_ROUNDTRIP
360
4DC
  0
DICTIONARY
  5
4E3
330
37
100
AcDbDictionary
280
     1
281
     1
  3
ACAD_XREC_ROUNDTRIP
360
4E4
  0
XRECORD
  5
4EE
102
{ACAD_REACTORS
330
4ED
102
}
330
4ED
100
AcDbXrecord
280
     1
102
MATERIAL
148
0.0
149
0.0
149
0.0
 93
        0
 94
      127
282
     0
 72
     1
 77
     1
171
     1
175
     1
179
     1
273
     0
  0
XRECORD
  5
4EC
102
{ACAD_REACTORS
330
4EB
102
}
330
4EB
100
AcDbXrecord
280
     1
102
MATERIAL
148
0.0
149
0.0
149
0.0
 93
        0
 94
      127
282
     0
 72
     1
 77
     1
171
     1
175
     1
179
     1
273
     0
  0
XRECORD
  5
4F0
102
{ACAD_REACTORS
330
4EF
102
}
330
4EF
100
AcDbXrecord
280
     1
102
MATERIAL
148
0.0
149
0.0
149
0.0
 93
        0
 94
      127
282
     0
 72
     1
 77
     1
171
     1
175
     1
179
     1
273
     0
  0
XRECORD
  5
4D4
102
{ACAD_REACTORS
330
4D3
102
}
330
4D3
100
AcDbXrecord
280
     1
102
RTVSPropertyOp0
 70
     1
102
RTVSPropertyOp1
 70
     1
102
RTVSPropertyOp2
 70
     1
102
RTVSPropertyOp3
 70
     1
102
RTVSPropertyOp4
 70
     1
102
RTVSPropertyOp5
 70
     1
102
RTVSPropertyOp6
 70
     1
102
RTVSPropertyOp7
 70
     1
102
RTVSPropertyOp8
 70
     1
102
RTVSPropertyOp9
 70
     1
102
RTVSPropertyOp10
 70
     1
102
RTVSPropertyOp11
 70
     1
102
RTVSPropertyOp12
 70
     1
102
RTVSPropertyOp13
 70
     1
102
RTVSPropertyOp14
 70
     1
102
RTVSPropertyOp15
 70
     1
102
RTVSPropertyOp16
 70
     1
102
RTVSPropertyOp17
 70
     1
102
RTVSPropertyOp18
 70
     1
102
RTVSPropertyOp19
 70
     1
102
RTVSPropertyOp20
 70
     1
102
RTVSPropertyOp21
 70
     1
102
RTVSPropertyOp22
 70
     1
102
RTVSPropertyOp23
 70
     1
102
RTVSPropertyOp24
 70
     1
102
RTVSPropertyOp25
 70
     1
102
RTVSPropertyOp26
 70
     1
102
RTVSPropertyOp27
 70
     1
102
RTVSPropertyOp28
 70
     1
102
RTVSPropertyOp29
 70
     1
102
RTVSPropertyOp30
 70
     1
102
RTVSPropertyOp31
 70
     1
102
RTVSPropertyOp32
 70
     1
  0
XRECORD
  5
4D8
102
{ACAD_REACTORS
330
4D7
102
}
330
4D7
100
AcDbXrecord
280
     1
102
RTVSPropertyOp0
 70
     1
102
RTVSPropertyOp1
 70
     1
102
RTVSPropertyOp2
 70
     1
102
RTVSPropertyOp3
 70
     1
102
RTVSPropertyOp4
 70
     1
102
RTVSPropertyOp5
 70
     1
102
RTVSPropertyOp6
 70
     1
102
RTVSPropertyOp7
 70
     1
102
RTVSPropertyOp8
 70
     1
102
RTVSPropertyOp9
 70
     1
102
RTVSPropertyOp10
 70
     1
102
RTVSPropertyOp11
 70
     1
102
RTVSPropertyOp12
 70
     1
102
RTVSPropertyOp13
 70
     1
102
RTVSPropertyOp14
 70
     1
102
RTVSPropertyOp15
 70
     1
102
RTVSPropertyOp16
 70
     1
102
RTVSPropertyOp17
 70
     1
102
RTVSPropertyOp18
 70
     1
102
RTVSPropertyOp19
 70
     1
102
RTVSPropertyOp20
 70
     1
102
RTVSPropertyOp21
 70
     1
102
RTVSPropertyOp22
 70
     1
102
RTVSPropertyOp23
 70
     1
102
RTVSPropertyOp24
 70
     1
102
RTVSPropertyOp25
 70
     1
102
RTVSPropertyOp26
 70
     1
102
RTVSPropertyOp27
 70
     1
102
RTVSPropertyOp28
 70
     1
102
RTVSPropertyOp29
 70
     1
102
RTVSPropertyOp30
 70
     1
102
RTVSPropertyOp31
 70
     1
102
RTVSPropertyOp32
 70
     1
  0
XRECORD
  5
4D6
102
{ACAD_REACTORS
330
4D5
102
}
330
4D5
100
AcDbXrecord
280
     1
102
RTVSPropertyOp0
 70
     1
102
RTVSPropertyOp1
 70
     1
102
RTVSPropertyOp2
 70
     1
102
RTVSPropertyOp3
 70
     1
102
RTVSPropertyOp4
 70
     1
102
RTVSPropertyOp5
 70
     1
102
RTVSPropertyOp6
 70
     1
102
RTVSPropertyOp7
 70
     1
102
RTVSPropertyOp8
 70
     1
102
RTVSPropertyOp9
 70
     1
102
RTVSPropertyOp10
 70
     1
102
RTVSPropertyOp11
 70
     1
102
RTVSPropertyOp12
 70
     1
102
RTVSPropertyOp13
 70
     1
102
RTVSPropertyOp14
 70
     1
102
RTVSPropertyOp15
 70
     1
102
RTVSPropertyOp16
 70
     1
102
RTVSPropertyOp17
 70
     1
102
RTVSPropertyOp18
 70
     1
102
RTVSPropertyOp19
 70
     1
102
RTVSPropertyOp20
 70
     1
102
RTVSPropertyOp21
 70
     1
102
RTVSPropertyOp22
 70
     1
102
RTVSPropertyOp23
 70
     1
102
RTVSPropertyOp24
 70
     1
102
RTVSPropertyOp25
 70
     1
102
RTVSPropertyOp26
 70
     1
102
RTVSPropertyOp27
 70
     1
102
RTVSPropertyOp28
 70
     1
102
RTVSPropertyOp29
 70
     1
102
RTVSPropertyOp30
 70
     1
102
RTVSPropertyOp31
 70
     1
102
RTVSPropertyOp32
 70
     1
  0
XRECORD
  5
4DA
102
{ACAD_REACTORS
330
4D9
102
}
330
4D9
100
AcDbXrecord
280
     1
102
RTVSPropertyOp0
 70
     1
102
RTVSPropertyOp1
 70
     1
102
RTVSPropertyOp2
 70
     1
102
RTVSPropertyOp3
 70
     1
102
RTVSPropertyOp4
 70
     1
102
RTVSPropertyOp5
 70
     1
102
RTVSPropertyOp6
 70
     1
102
RTVSPropertyOp7
 70
     1
102
RTVSPropertyOp8
 70
     1
102
RTVSPropertyOp9
 70
     1
102
RTVSPropertyOp10
 70
     1
102
RTVSPropertyOp11
 70
     1
102
RTVSPropertyOp12
 70
     1
102
RTVSPropertyOp13
 70
     1
102
RTVSPropertyOp14
 70
     1
102
RTVSPropertyOp15
 70
     1
102
RTVSPropertyOp16
 70
     1
102
RTVSPropertyOp17
 70
     1
102
RTVSPropertyOp18
 70
     1
102
RTVSPropertyOp19
 70
     1
102
RTVSPropertyOp20
 70
     1
102
RTVSPropertyOp21
 70
     1
102
RTVSPropertyOp22
 70
     1
102
RTVSPropertyOp23
 70
     1
102
RTVSPropertyOp24
 70
     1
102
RTVSPropertyOp25
 70
     1
102
RTVSPropertyOp26
 70
     1
102
RTVSPropertyOp27
 70
     1
102
RTVSPropertyOp28
 70
     1
102
RTVSPropertyOp29
 70
     1
102
RTVSPropertyOp30
 70
     1
102
RTVSPropertyOp31
 70
     1
102
RTVSPropertyOp32
 70
     1
  0
XRECORD
  5
4E2
102
{ACAD_REACTORS
330
4E1
102
}
330
4E1
100
AcDbXrecord
280
     1
102
RTVSPropertyOp0
 70
     1
102
RTVSPropertyOp1
 70
     1
102
RTVSPropertyOp2
 70
     1
102
RTVSPropertyOp3
 70
     1
102
RTVSPropertyOp4
 70
     1
102
RTVSPropertyOp5
 70
     1
102
RTVSPropertyOp6
 70
     1
102
RTVSPropertyOp7
 70
     1
102
RTVSPropertyOp8
 70
     1
102
RTVSPropertyOp9
 70
     1
102
RTVSPropertyOp10
 70
     1
102
RTVSPropertyOp11
 70
     1
102
RTVSPropertyOp12
 70
     1
102
RTVSPropertyOp13
 70
     1
102
RTVSPropertyOp14
 70
     1
102
RTVSPropertyOp15
 70
     1
102
RTVSPropertyOp16
 70
     1
102
RTVSPropertyOp17
 70
     1
102
RTVSPropertyOp18
 70
     1
102
RTVSPropertyOp19
 70
     1
102
RTVSPropertyOp20
 70
     1
102
RTVSPropertyOp21
 70
     1
102
RTVSPropertyOp22
 70
     1
102
RTVSPropertyOp23
 70
     1
102
RTVSPropertyOp24
 70
     1
102
RTVSPropertyOp25
 70
     1
102
RTVSPropertyOp26
 70
     1
102
RTVSPropertyOp27
 70
     1
102
RTVSPropertyOp28
 70
     1
102
RTVSPropertyOp29
 70
     1
102
RTVSPropertyOp30
 70
     1
102
RTVSPropertyOp31
 70
     1
102
RTVSPropertyOp32
 70
     1
  0
XRECORD
  5
4EA
102
{ACAD_REACTORS
330
4E9
102
}
330
4E9
100
AcDbXrecord
280
     1
102
RTVSPropertyOp0
 70
     1
102
RTVSPropertyOp1
 70
     1
102
RTVSPropertyOp2
 70
     1
102
RTVSPropertyOp3
 70
     1
102
RTVSPropertyOp4
 70
     1
102
RTVSPropertyOp5
 70
     1
102
RTVSPropertyOp6
 70
     1
102
RTVSPropertyOp7
 70
     1
102
RTVSPropertyOp8
 70
     1
102
RTVSPropertyOp9
 70
     1
102
RTVSPropertyOp10
 70
     1
102
RTVSPropertyOp11
 70
     1
102
RTVSPropertyOp12
 70
     1
102
RTVSPropertyOp13
 70
     1
102
RTVSPropertyOp14
 70
     1
102
RTVSPropertyOp15
 70
     1
102
RTVSPropertyOp16
 70
     1
102
RTVSPropertyOp17
 70
     1
102
RTVSPropertyOp18
 70
     1
102
RTVSPropertyOp19
 70
     1
102
RTVSPropertyOp20
 70
     1
102
RTVSPropertyOp21
 70
     1
102
RTVSPropertyOp22
 70
     1
102
RTVSPropertyOp23
 70
     1
102
RTVSPropertyOp24
 70
     1
102
RTVSPropertyOp25
 70
     1
102
RTVSPropertyOp26
 70
     1
102
RTVSPropertyOp27
 70
     1
102
RTVSPropertyOp28
 70
     1
102
RTVSPropertyOp29
 70
     1
102
RTVSPropertyOp30
 70
     1
102
RTVSPropertyOp31
 70
     1
102
RTVSPropertyOp32
 70
     1
  0
XRECORD
  5
4DE
102
{ACAD_REACTORS
330
4DD
102
}
330
4DD
100
AcDbXrecord
280
     1
102
RTVSPropertyOp0
 70
     1
102
RTVSPropertyOp1
 70
     1
102
RTVSPropertyOp2
 70
     1
102
RTVSPropertyOp3
 70
     1
102
RTVSPropertyOp4
 70
     1
102
RTVSPropertyOp5
 70
     1
102
RTVSPropertyOp6
 70
     1
102
RTVSPropertyOp7
 70
     1
102
RTVSPropertyOp8
 70
     1
102
RTVSPropertyOp9
 70
     1
102
RTVSPropertyOp10
 70
     1
102
RTVSPropertyOp11
 70
     1
102
RTVSPropertyOp12
 70
     1
102
RTVSPropertyOp13
 70
     1
102
RTVSPropertyOp14
 70
     1
102
RTVSPropertyOp15
 70
     1
102
RTVSPropertyOp16
 70
     1
102
RTVSPropertyOp17
 70
     1
102
RTVSPropertyOp18
 70
     1
102
RTVSPropertyOp19
 70
     1
102
RTVSPropertyOp20
 70
     1
102
RTVSPropertyOp21
 70
     1
102
RTVSPropertyOp22
 70
     1
102
RTVSPropertyOp23
 70
     1
102
RTVSPropertyOp24
 70
     1
102
RTVSPropertyOp25
 70
     1
102
RTVSPropertyOp26
 70
     1
102
RTVSPropertyOp27
 70
     1
102
RTVSPropertyOp28
 70
     1
102
RTVSPropertyOp29
 70
     1
102
RTVSPropertyOp30
 70
     1
102
RTVSPropertyOp31
 70
     1
102
RTVSPropertyOp32
 70
     1
  0
XRECORD
  5
4E0
102
{ACAD_REACTORS
330
4DF
102
}
330
4DF
100
AcDbXrecord
280
     1
102
RTVSPropertyOp0
 70
     1
102
RTVSPropertyOp1
 70
     1
102
RTVSPropertyOp2
 70
     1
102
RTVSPropertyOp3
 70
     1
102
RTVSPropertyOp4
 70
     1
102
RTVSPropertyOp5
 70
     1
102
RTVSPropertyOp6
 70
     1
102
RTVSPropertyOp7
 70
     1
102
RTVSPropertyOp8
 70
     1
102
RTVSPropertyOp9
 70
     1
102
RTVSPropertyOp10
 70
     1
102
RTVSPropertyOp11
 70
     1
102
RTVSPropertyOp12
 70
     1
102
RTVSPropertyOp13
 70
     1
102
RTVSPropertyOp14
 70
     1
102
RTVSPropertyOp15
 70
     1
102
RTVSPropertyOp16
 70
     1
102
RTVSPropertyOp17
 70
     1
102
RTVSPropertyOp18
 70
     1
102
RTVSPropertyOp19
 70
     1
102
RTVSPropertyOp20
 70
     1
102
RTVSPropertyOp21
 70
     1
102
RTVSPropertyOp22
 70
     1
102
RTVSPropertyOp23
 70
     1
102
RTVSPropertyOp24
 70
     1
102
RTVSPropertyOp25
 70
     1
102
RTVSPropertyOp26
 70
     1
102
RTVSPropertyOp27
 70
     1
102
RTVSPropertyOp28
 70
     1
102
RTVSPropertyOp29
 70
     1
102
RTVSPropertyOp30
 70
     1
102
RTVSPropertyOp31
 70
     1
102
RTVSPropertyOp32
 70
     1
  0
XRECORD
  5
4E8
102
{ACAD_REACTORS
330
4E7
102
}
330
4E7
100
AcDbXrecord
280
     1
102
RTVSPropertyOp0
 70
     1
102
RTVSPropertyOp1
 70
     1
102
RTVSPropertyOp2
 70
     1
102
RTVSPropertyOp3
 70
     1
102
RTVSPropertyOp4
 70
     1
102
RTVSPropertyOp5
 70
     1
102
RTVSPropertyOp6
 70
     1
102
RTVSPropertyOp7
 70
     1
102
RTVSPropertyOp8
 70
     1
102
RTVSPropertyOp9
 70
     1
102
RTVSPropertyOp10
 70
     1
102
RTVSPropertyOp11
 70
     1
102
RTVSPropertyOp12
 70
     1
102
RTVSPropertyOp13
 70
     1
102
RTVSPropertyOp14
 70
     1
102
RTVSPropertyOp15
 70
     1
102
RTVSPropertyOp16
 70
     1
102
RTVSPropertyOp17
 70
     1
102
RTVSPropertyOp18
 70
     1
102
RTVSPropertyOp19
 70
     1
102
RTVSPropertyOp20
 70
     1
102
RTVSPropertyOp21
 70
     1
102
RTVSPropertyOp22
 70
     1
102
RTVSPropertyOp23
 70
     1
102
RTVSPropertyOp24
 70
     1
102
RTVSPropertyOp25
 70
     1
102
RTVSPropertyOp26
 70
     1
102
RTVSPropertyOp27
 70
     1
102
RTVSPropertyOp28
 70
     1
102
RTVSPropertyOp29
 70
     1
102
RTVSPropertyOp30
 70
     1
102
RTVSPropertyOp31
 70
     1
102
RTVSPropertyOp32
 70
     1
  0
XRECORD
  5
4CC
102
{ACAD_REACTORS
330
4CB
102
}
330
4CB
100
AcDbXrecord
280
     1
102
RTVSPropertyOp0
 70
     1
102
RTVSPropertyOp1
 70
     1
102
RTVSPropertyOp2
 70
     1
102
RTVSPropertyOp3
 70
     1
102
RTVSPropertyOp4
 70
     1
102
RTVSPropertyOp5
 70
     1
102
RTVSPropertyOp6
 70
     1
102
RTVSPropertyOp7
 70
     1
102
RTVSPropertyOp8
 70
     1
102
RTVSPropertyOp9
 70
     1
102
RTVSPropertyOp10
 70
     1
102
RTVSPropertyOp11
 70
     1
102
RTVSPropertyOp12
 70
     1
102
RTVSPropertyOp13
 70
     1
102
RTVSPropertyOp14
 70
     1
102
RTVSPropertyOp15
 70
     1
102
RTVSPropertyOp16
 70
     1
102
RTVSPropertyOp17
 70
     1
102
RTVSPropertyOp18
 70
     1
102
RTVSPropertyOp19
 70
     1
102
RTVSPropertyOp20
 70
     1
102
RTVSPropertyOp21
 70
     1
102
RTVSPropertyOp22
 70
     1
102
RTVSPropertyOp23
 70
     1
102
RTVSPropertyOp24
 70
     1
102
RTVSPropertyOp25
 70
     1
102
RTVSPropertyOp26
 70
     1
102
RTVSPropertyOp27
 70
     1
102
RTVSPropertyOp28
 70
     1
102
RTVSPropertyOp29
 70
     1
102
RTVSPropertyOp30
 70
     1
102
RTVSPropertyOp31
 70
     1
102
RTVSPropertyOp32
 70
     1
  0
XRECORD
  5
4CE
102
{ACAD_REACTORS
330
4CD
102
}
330
4CD
100
AcDbXrecord
280
     1
102
RTVSPropertyOp0
 70
     1
102
RTVSPropertyOp1
 70
     1
102
RTVSPropertyOp2
 70
     1
102
RTVSPropertyOp3
 70
     1
102
RTVSPropertyOp4
 70
     1
102
RTVSPropertyOp5
 70
     1
102
RTVSPropertyOp6
 70
     1
102
RTVSPropertyOp7
 70
     1
102
RTVSPropertyOp8
 70
     1
102
RTVSPropertyOp9
 70
     1
102
RTVSPropertyOp10
 70
     1
102
RTVSPropertyOp11
 70
     1
102
RTVSPropertyOp12
 70
     1
102
RTVSPropertyOp13
 70
     1
102
RTVSPropertyOp14
 70
     1
102
RTVSPropertyOp15
 70
     1
102
RTVSPropertyOp16
 70
     1
102
RTVSPropertyOp17
 70
     1
102
RTVSPropertyOp18
 70
     1
102
RTVSPropertyOp19
 70
     1
102
RTVSPropertyOp20
 70
     1
102
RTVSPropertyOp21
 70
     1
102
RTVSPropertyOp22
 70
     1
102
RTVSPropertyOp23
 70
     1
102
RTVSPropertyOp24
 70
     1
102
RTVSPropertyOp25
 70
     1
102
RTVSPropertyOp26
 70
     1
102
RTVSPropertyOp27
 70
     1
102
RTVSPropertyOp28
 70
     1
102
RTVSPropertyOp29
 70
     1
102
RTVSPropertyOp30
 70
     1
102
RTVSPropertyOp31
 70
     1
102
RTVSPropertyOp32
 70
     1
  0
XRECORD
  5
4D0
102
{ACAD_REACTORS
330
4CF
102
}
330
4CF
100
AcDbXrecord
280
     1
102
RTVSPropertyOp0
 70
     1
102
RTVSPropertyOp1
 70
     1
102
RTVSPropertyOp2
 70
     1
102
RTVSPropertyOp3
 70
     1
102
RTVSPropertyOp4
 70
     1
102
RTVSPropertyOp5
 70
     1
102
RTVSPropertyOp6
 70
     1
102
RTVSPropertyOp7
 70
     1
102
RTVSPropertyOp8
 70
     1
102
RTVSPropertyOp9
 70
     1
102
RTVSPropertyOp10
 70
     1
102
RTVSPropertyOp11
 70
     1
102
RTVSPropertyOp12
 70
     1
102
RTVSPropertyOp13
 70
     1
102
RTVSPropertyOp14
 70
     1
102
RTVSPropertyOp15
 70
     1
102
RTVSPropertyOp16
 70
     1
102
RTVSPropertyOp17
 70
     1
102
RTVSPropertyOp18
 70
     1
102
RTVSPropertyOp19
 70
     1
102
RTVSPropertyOp20
 70
     1
102
RTVSPropertyOp21
 70
     1
102
RTVSPropertyOp22
 70
     1
102
RTVSPropertyOp23
 70
     1
102
RTVSPropertyOp24
 70
     1
102
RTVSPropertyOp25
 70
     1
102
RTVSPropertyOp26
 70
     1
102
RTVSPropertyOp27
 70
     1
102
RTVSPropertyOp28
 70
     1
102
RTVSPropertyOp29
 70
     1
102
RTVSPropertyOp30
 70
     1
102
RTVSPropertyOp31
 70
     1
102
RTVSPropertyOp32
 70
     1
  0
XRECORD
  5
4D2
102
{ACAD_REACTORS
330
4D1
102
}
330
4D1
100
AcDbXrecord
280
     1
102
RTVSPropertyOp0
 70
     1
102
RTVSPropertyOp1
 70
     1
102
RTVSPropertyOp2
 70
     1
102
RTVSPropertyOp3
 70
     1
102
RTVSPropertyOp4
 70
     1
102
RTVSPropertyOp5
 70
     1
102
RTVSPropertyOp6
 70
     1
102
RTVSPropertyOp7
 70
     1
102
RTVSPropertyOp8
 70
     1
102
RTVSPropertyOp9
 70
     1
102
RTVSPropertyOp10
 70
     1
102
RTVSPropertyOp11
 70
     1
102
RTVSPropertyOp12
 70
     1
102
RTVSPropertyOp13
 70
     1
102
RTVSPropertyOp14
 70
     1
102
RTVSPropertyOp15
 70
     1
102
RTVSPropertyOp16
 70
     1
102
RTVSPropertyOp17
 70
     1
102
RTVSPropertyOp18
 70
     1
102
RTVSPropertyOp19
 70
     1
102
RTVSPropertyOp20
 70
     1
102
RTVSPropertyOp21
 70
     1
102
RTVSPropertyOp22
 70
     1
102
RTVSPropertyOp23
 70
     1
102
RTVSPropertyOp24
 70
     1
102
RTVSPropertyOp25
 70
     1
102
RTVSPropertyOp26
 70
     1
102
RTVSPropertyOp27
 70
     1
102
RTVSPropertyOp28
 70
     1
102
RTVSPropertyOp29
 70
     1
102
RTVSPropertyOp30
 70
     1
102
RTVSPropertyOp31
 70
     1
102
RTVSPropertyOp32
 70
     1
  0
XRECORD
  5
4E6
102
{ACAD_REACTORS
330
4E5
102
}
330
4E5
100
AcDbXrecord
280
     1
102
RTVSPropertyOp0
 70
     1
102
RTVSPropertyOp1
 70
     1
102
RTVSPropertyOp2
 70
     1
102
RTVSPropertyOp3
 70
     1
102
RTVSPropertyOp4
 70
     1
102
RTVSPropertyOp5
 70
     1
102
RTVSPropertyOp6
 70
     1
102
RTVSPropertyOp7
 70
     1
102
RTVSPropertyOp8
 70
     1
102
RTVSPropertyOp9
 70
     1
102
RTVSPropertyOp10
 70
     1
102
RTVSPropertyOp11
 70
     1
102
RTVSPropertyOp12
 70
     1
102
RTVSPropertyOp13
 70
     1
102
RTVSPropertyOp14
 70
     1
102
RTVSPropertyOp15
 70
     1
102
RTVSPropertyOp16
 70
     1
102
RTVSPropertyOp17
 70
     1
102
RTVSPropertyOp18
 70
     1
102
RTVSPropertyOp19
 70
     1
102
RTVSPropertyOp20
 70
     1
102
RTVSPropertyOp21
 70
     1
102
RTVSPropertyOp22
 70
     1
102
RTVSPropertyOp23
 70
     1
102
RTVSPropertyOp24
 70
     1
102
RTVSPropertyOp25
 70
     1
102
RTVSPropertyOp26
 70
     1
102
RTVSPropertyOp27
 70
     1
102
RTVSPropertyOp28
 70
     1
102
RTVSPropertyOp29
 70
     1
102
RTVSPropertyOp30
 70
     1
102
RTVSPropertyOp31
 70
     1
102
RTVSPropertyOp32
 70
     1
  0
XRECORD
  5
4DC
102
{ACAD_REACTORS
330
4DB
102
}
330
4DB
100
AcDbXrecord
280
     1
102
RTVSPropertyOp0
 70
     1
102
RTVSPropertyOp1
 70
     1
102
RTVSPropertyOp2
 70
     1
102
RTVSPropertyOp3
 70
     1
102
RTVSPropertyOp4
 70
     1
102
RTVSPropertyOp5
 70
     1
102
RTVSPropertyOp6
 70
     1
102
RTVSPropertyOp7
 70
     1
102
RTVSPropertyOp8
 70
     1
102
RTVSPropertyOp9
 70
     1
102
RTVSPropertyOp10
 70
     1
102
RTVSPropertyOp11
 70
     1
102
RTVSPropertyOp12
 70
     1
102
RTVSPropertyOp13
 70
     1
102
RTVSPropertyOp14
 70
     1
102
RTVSPropertyOp15
 70
     1
102
RTVSPropertyOp16
 70
     1
102
RTVSPropertyOp17
 70
     1
102
RTVSPropertyOp18
 70
     1
102
RTVSPropertyOp19
 70
     1
102
RTVSPropertyOp20
 70
     1
102
RTVSPropertyOp21
 70
     1
102
RTVSPropertyOp22
 70
     1
102
RTVSPropertyOp23
 70
     1
102
RTVSPropertyOp24
 70
     1
102
RTVSPropertyOp25
 70
     1
102
RTVSPropertyOp26
 70
     1
102
RTVSPropertyOp27
 70
     1
102
RTVSPropertyOp28
 70
     1
102
RTVSPropertyOp29
 70
     1
102
RTVSPropertyOp30
 70
     1
102
RTVSPropertyOp31
 70
     1
102
RTVSPropertyOp32
 70
     1
  0
XRECORD
  5
4E4
102
{ACAD_REACTORS
330
4E3
102
}
330
4E3
100
AcDbXrecord
280
     1
102
RTVSPropertyOp0
 70
     1
102
RTVSPropertyOp1
 70
     1
102
RTVSPropertyOp2
 70
     1
102
RTVSPropertyOp3
 70
     1
102
RTVSPropertyOp4
 70
     1
102
RTVSPropertyOp5
 70
     1
102
RTVSPropertyOp6
 70
     1
102
RTVSPropertyOp7
 70
     1
102
RTVSPropertyOp8
 70
     1
102
RTVSPropertyOp9
 70
     1
102
RTVSPropertyOp10
 70
     1
102
RTVSPropertyOp11
 70
     1
102
RTVSPropertyOp12
 70
     1
102
RTVSPropertyOp13
 70
     1
102
RTVSPropertyOp14
 70
     1
102
RTVSPropertyOp15
 70
     1
102
RTVSPropertyOp16
 70
     1
102
RTVSPropertyOp17
 70
     1
102
RTVSPropertyOp18
 70
     1
102
RTVSPropertyOp19
 70
     1
102
RTVSPropertyOp20
 70
     1
102
RTVSPropertyOp21
 70
     1
102
RTVSPropertyOp22
 70
     1
102
RTVSPropertyOp23
 70
     1
102
RTVSPropertyOp24
 70
     1
102
RTVSPropertyOp25
 70
     1
102
RTVSPropertyOp26
 70
     1
102
RTVSPropertyOp27
 70
     1
102
RTVSPropertyOp28
 70
     1
102
RTVSPropertyOp29
 70
     1
102
RTVSPropertyOp30
 70
     1
102
RTVSPropertyOp31
 70
     1
102
RTVSPropertyOp32
 70
     1
  0
ENDSEC
  0
EOF
